Сегодня идет свободное скачивание без начисления Download

Безмозглые / BrainDead / Сезон: 1 / Серии: 1 из 13 (Роберт Кинг / Robert King) [2016, фантастика, драма, комедия, WEB-DLRip] MVO (LostFilm) + Original

Ответить на тему
 
Автор
Сообщение

Omen ®

Стаж: 5 лет 10 месяцев

Сообщений: 184329

Торрент-статистика

Пост 18-Июн-2016 12:00

[Цитировать]

Безмозглые / BrainDeadГод выпуска: 2016
Страна: США
Жанр: ужасы, фантастика, драма, комедия
Продолжительность: ~ 00:49:00
Перевод: Профессиональный (многоголосый закадровый) LostFilm
Оригинальная аудиодорожка: Английский
Субтитры: отсутствуют
Режиссёр:
Роберт Кинг / Robert King
В Ролях: Мэри Элизабет Уинстэд, Дэниэл Пино, Тони Шэлуб, Аарон Твейт, Никки М. Джеймс, Джонни Гилл, Джен Максвелл, Зак Гренье, Чарли Семине и др.

План Лорел Хили сделать карьеру в документальном кино складывается далеко не так удачно, как ей хотелось бы, из-за чего она вынуждена согласиться поработать в Конгрессе в команде ее брата — сенатора от штата Мэриленд, занимающего пост парламентского организатора фракции демократов. На новом месте девушка сталкивается сразу с двумя серьезными проблемами. Первая касается непреодолимых разногласий между демократами и республиканцами, грозящих привести к прекращению работы правительства. Вторая заключается в том, что ведущие американские политики подверглись нападению мелких инопланетных существ, питающихся мозгами людей. Чтобы узнать истинные цели этих загадочных жучков, Лорел предстоит объединить усилия с эксцентричным конспирологом Густавом Триплеттом и ординатором Рошель Додье. Число подвергшихся заражению конгрессменов и сенаторов продолжает увеличиваться, что вынуждает главную героиню принять экстренные меры по спасению американцев от полоумных политиков...
Качество: WEB-DLRip / WEB-DL 1080p
Формат: AVI
Видео: 720x400 (1.80:1), 23.976 fps, XviD build 65 ~1275 kbps avg, 0.18 bit/pixel
Аудио#1 : 48 kHz, MPEG Layer 3, 2 ch, ~128.00 kbps avg - /FOX/
Audio #2: 48 kHz, MPEG Layer 3, 2 ch, ~128.00 kbps avg - ENG
/

Раздача ведется путем добавления новых серий

Когда раздача ведётся путём добавления новых серий, при каждом добавлении создаётся новый торрент. Чтобы начать докачку новой серии, пользователям необходимо сделать следующее:
(1) остановить скачивание,
(2) удалить старый торрент у себя из клиента (старые серии удалять не надо),
(3) скачать новый торрент и запустить его у себя в клиенте вместо старого, при этом указать клиенту путь в старую папку, куда и должно происходить скачивание новых серий.
Ваш клиент при этом должен произвести хеширование (проверку) старой папки (если не производит сам - помогите ему сделать это), и будет докачивать только те серии, которых у вас ещё нет. Старые серии при этом не удаляются, а продолжают раздаваться!
Eсли вы уже удалили старые серии, то предотвратить повторную закачку старых серий можно, отжав галочку в соответсвующих местах при запуске нового торрента. По возможности, желательно не удалять старые серии как можно дольше, чтобы релизёр не столько продолжал раздавать старые серии, а смог сконцентрироваться на новых.

MediaInfo

General
Complete name : C:\Users\Никита\Desktop\1 серия.avi
Format : AVI
Format/Info : Audio Video Interleave
File size : 485 MiB
Duration : 43mn 48s
Overall bit rate : 1 547 Kbps
Writing application : VirtualDubMod 1.5.10.2 (build 2540/release)
Writing library : VirtualDubMod build 2540/release
Video
ID : 0
Format : MPEG-4 Visual
Format profile : Advanced Simple@L5
Format settings, BVOP : 1
Format settings, QPel : No
Format settings, GMC : No warppoints
Format settings, Matrix : Custom
Codec ID : XVID
Codec ID/Hint : XviD
Duration : 43mn 48s
Bit rate : 1 277 Kbps
Width : 720 pixels
Height : 400 pixels
Display aspect ratio : 16:9
Frame rate : 23.976 (24000/1001) fps
Color space : YUV
Chroma subsampling : 4:2:0
Bit depth : 8 bits
Scan type : Progressive
Compression mode : Lossy
Bits/(Pixel*Frame) : 0.185
Stream size : 400 MiB (83%)
Writing library : XviD 65
Audio #1
ID : 1
Format : MPEG Audio
Format version : Version 1
Format profile : Layer 3
Mode : Joint stereo
Mode extension : MS Stereo
Codec ID : 55
Codec ID/Hint : MP3
Duration : 43mn 48s
Bit rate mode : Constant
Bit rate : 128 Kbps
Channel(s) : 2 channels
Sampling rate : 48.0 KHz
Compression mode : Lossy
Stream size : 40.1 MiB (8%)
Alignment : Aligned on interleaves
Interleave, duration : 42 ms (1.00 video frame)
Interleave, preload duratio : 504 ms
Writing library : LAME3.99r
Encoding settings : -m j -V 4 -q 2 -lowpass 17 -b 128
Audio #2
ID : 2
Format : MPEG Audio
Format version : Version 1
Format profile : Layer 3
Mode : Joint stereo
Mode extension : MS Stereo
Codec ID : 55
Codec ID/Hint : MP3
Duration : 43mn 48s
Bit rate mode : Constant
Bit rate : 128 Kbps
Channel(s) : 2 channels
Sampling rate : 48.0 KHz
Compression mode : Lossy
Stream size : 40.1 MiB (8%)
Alignment : Aligned on interleaves
Interleave, duration : 42 ms (1.00 video frame)
Interleave, preload duratio : 504 ms
Writing library : LAME3.99r
Encoding settings : -m j -V 4 -q 2 -lowpass 17 -b 128

Скриншоты

Вне форума [Профиль] [ЛС]
Показать сообщения:    
Ответить на тему

Текущее время: Сегодня 14:45

Часовой пояс: GMT + 3



Вы не можете начинать темы
Вы не можете отвечать на сообщения
Вы не можете редактировать свои сообщения
Вы не можете удалять свои сообщения
Вы не можете голосовать в опросах
Вы не можете прикреплять файлы к сообщениям
Вы не можете скачивать файлы