Сегодня идет свободное скачивание без начисления Download

Наполеон и Жозефина, или Власть желаний / Joséphine ou la comédie des ambitions / Сезон: 1 / Серии: 1-5 из 5 (Робер Мазуайе) [1979, Историческая драма/Мелодрама, DVDRip] DVO

Ответить на тему
 
Автор
Сообщение

Omen ®

Стаж: 5 лет 9 месяцев

Сообщений: 184393

Торрент-статистика

Пост 18-Июн-2016 06:00

[Цитировать]

Наполеон и Жозефина, или Власть желаний / Joséphine ou la comédie des ambitions
Год выпуска: 1979
Страна: Франция
Жанр: Историческая драма/Мелодрама
Продолжительность: 90 мин
Перевод: Профессиональный (двухголосый закадровый)
Режиссёр: Робер Мазуайе
В ролях: Даниель Лебрюн, Даниэль Месгиш, Клер Верне, Жан-Люк Моро, Антуан Бурсейе, Роберт Рембо, Жан-Поль Фарре, Мадлен Озерэ, Кристина Кауфманн, Жан Мартинелли, Мони Дальмес, Катрин де Севн, Энн-Мари Филип, Эрик Колен
Описание: Историческая фреска, главным персонажем которой является Жозефина де Богарне, супруга императора Наполеона. На фоне отношений Жозефины и Наполеона мы видим восхождение и падение императора в историческом французском контексте сложившемся после первой Революции 1789 года. Роз-Жозефин де ля Пажери была рождена для блестящей жизни 23 июня 1763 года, в Труа-Илет на острове Мартиника…
Доп. информация: Из писем Наполеона к Жозефине:
"У меня не было дня, когда бы я не думал о тебе. Не было ночи, когда бы я не сжимал тебя в объятиях. Я ни разу не выпил чаю, не прокляв при этом славу и честолюбие, обрекающие меня на разлуку с душой моей жизни. В гуще дел, во главе войск, в лагере - всюду моя обворожительная Жозефина одна царит в моем сердце, занимает мой ум, поглощает мои мысли."
"…Тысячи, тысячи поцелуев, таких же нежных, как моя любовь!"
"…Там, где рядом моя Жозефина, я ничего уже больше не вижу."

Жозефина о Наполеоне
"И все-таки, Бог свидетель, я люблю его больше жизни…"
Наполеон о Жозефине:
"Ни одну женщину я не любил так сильно."
Сэмпл: http://depositfiles.com/files/1ssie7n1z
Качество: DVDRip
Формат: AVI
Видео: xvid,2047 Кбит/сек,720 пикселей,576 пикселей,5:4, 25,000 кадров/сек,PAL,0.197, 1,35 Гбайт
Аудио: MP3,44,1 КГц, 2ch, 128 Кбит/сек
Субтитры: отсутствуют

Список серий

Первая серия: Кармская тюрьма (1793-1794)/Episode 1 : La prison des Carmes (1793-1794)
Вторая серия: Хижина мадам Тальен (зима 1795 - 11 марта 1796)/Episode 2 : La chaumière de madame Tallien (hiver 1795 - 11 mars 1796)
Третья серия: Итальянские приключения (март 1796 - декабрь 1797)/Episode 3 : L'aventure italienne (mars 1796 - décembre 1797)
Четвертая серия: Поступь коронации (апрель 1799 - декабрь 1804)/Episode 4: La marche du sacre (avril 1799 - décembre 1804)
Пятая серия: Отречение (5 мая 1807 - 2 июня 1814)/Episode 5 : La répudiation (5 mai 1807 - 2 juin 1814)

MediaInfo

Формат : AVI
Формат/Информация : Audio Video Interleave
Профиль формата : OpenDML
Размер файла : 1,35 Гбайт
Продолжительность : 1 ч. 28 м.
Общий поток : 2189 Кбит/сек
Программа кодирования : Lavf52.93.0
Видео
Идентификатор : 0
Формат : xvid
Идентификатор кодека : xvid
Продолжительность : 1 ч. 28 м.
Битрейт : 2047 Кбит/сек
Ширина : 720 пикселей
Высота : 576 пикселей
Соотношение сторон : 5:4
Частота кадров : 25,000 кадров/сек
Стандарт вещания : PAL
Тип развёртки : Прогрессивная
Бит/(Пиксели*Кадры) : 0.197
Размер потока : 1,26 Гбайт (94%)
Аудио
Идентификатор : 1
Формат : MPEG Audio
Версия формата : Version 1
Профиль формата : Layer 3
Режим : Joint stereo
Расширение режима : MS Stereo
Идентификатор кодека : 55
Идентификатор кодека/Подсказка : MP3
Продолжительность : 1 ч. 28 м.
Вид битрейта : Постоянный
Битрейт : 128 Кбит/сек
Каналы : 2 канала
Частота : 44,1 КГц
Метод сжатия : С потерями
Размер потока : 80,8 Мбайт (6%)
Выравнивание : Соединение по промежуткам
Продолжительность промежутка : 26 мс. (0,65 видеокадр)
Время предзагрузки промежутка : 26 мс.

Скриншоты



Вне форума [Профиль] [ЛС]
Похожие темы
Форум Тема Автор Торрент Отв. Посл. сообщение
./templates/default/images/folder_dl.gif Обучающее видео [HighLights] Ретушь и Цветовое наполнение в фотографии [2016, RUS] Omen
1 | 0

0 | 959

11

2016-02-11 00:00
Omen Последнее
Показать сообщения:    
Ответить на тему

Текущее время: Сегодня 20:50

Часовой пояс: GMT + 3



Вы не можете начинать темы
Вы не можете отвечать на сообщения
Вы не можете редактировать свои сообщения
Вы не можете удалять свои сообщения
Вы не можете голосовать в опросах
Вы не можете прикреплять файлы к сообщениям
Вы не можете скачивать файлы