Сегодня идет свободное скачивание без начисления Download

Настоящая кровь / True Blood / Сезон: 4 / Серии: 1-12 из 12 (Майкл Леманн, Скотт Уинант, Даниэль Минахан) [2011, Драма, ужасы, фэнтези, фантастика, BDRip] MVO (FOX Life) + Original

Ответить на тему
 
Автор
Сообщение

Omen ®

Стаж: 5 лет 6 месяцев

Сообщений: 186946

Торрент-статистика

Пост 17-Июн-2016 15:00

[Цитировать]

Настоящая кровь | True Blood- Год выпуска: 2011
Страна: США
Жанр: Драма, ужасы, фэнтези, фантастика
Продолжительность: 00:55:00
Перевод: Профессиональный (многоголосый закадровый) FOX Life--Режиссёр: Майкл Леманн, Скотт Уинант, Даниэль Минахан
В ролях: Анна Пакуин, Стивен Мойер, Сэм Траммелл, Райан Квантен, Рутина Уэсли, Кристофер Бауэр, Нелсан Эллис, Джим Пэррак, Кэрри Престон и др.-Описание: События разворачиваются в небольшом городке в пригороде Нового Орлеана. С тех пор, как японцы изобрели синтетическую кровь «True Blood», у вампиров отпала необходимость убивать простых смертных. Два года назад вампиры покинули свои гробы и официально заявили о своих правах. Но как водится, не все люди оказались готовы к этому, и не все вампиры были рады отказаться от привычного лакомства. Сьюки Стакхаус — обычная официантка из пригородного кафе, наделенная способностью читать мысли окружающих, знакомится с «хорошим» вампиром Биллом Комптоном. И сразу приобретает много врагов среди «плохих парней»--Релиз от Celta88
Рип: Visitors91--Сэмпл: http://multi-up.com/1106286-Качество: BDRip
Формат: AVI
Видео: XVID, 720x400 (16:9), 23.976 fps, 2000 kbps avg, 0.29 bit/pixel
Аудио Rus: AC3 Dolby Digital, 48.0 KHz, 2 channels, 192 kbps avg
Аудио Eng: AC3 Dolby Digital, 48.0 KHz, 6 channels, 384 kbps avg
Субтитры: отсутствуют

MediaInfo

General
Complete name : E:\Настоящая кровь (Сезон 4) FOX Life\True.Blood.s04e01.rus.eng.Celta88.avi
Format : AVI
Format/Info : Audio Video Interleave
File size : 1.02 GiB
Duration : 56mn 15s
Overall bit rate : 2 590 Kbps
Writing application : VirtualDubMod 1.5.10.2 (build 2540/release)
Writing library : VirtualDubMod build 2540/release
Video
ID : 0
Format : MPEG-4 Visual
Format profile : Advanced Simple@L5
Format settings, BVOP : 1
Format settings, QPel : No
Format settings, GMC : No warppoints
Format settings, Matrix : Default (MPEG)
Codec ID : XVID
Codec ID/Hint : XviD
Duration : 56mn 15s
Bit rate : 2 000 Kbps
Width : 720 pixels
Height : 400 pixels
Display aspect ratio : 16:9
Frame rate : 23.976 (23976/1000) fps
Color space : YUV
Chroma subsampling : 4:2:0
Bit depth : 8 bits
Scan type : Progressive
Compression mode : Lossy
Bits/(Pixel*Frame) : 0.290
Stream size : 805 MiB (77%)
Writing library : XviD 65
Audio #1
ID : 1
Format : AC-3
Format/Info : Audio Coding 3
Mode extension : CM (complete main)
Format settings, Endianness : Big
Codec ID : 2000
Duration : 56mn 15s
Bit rate mode : Constant
Bit rate : 192 Kbps
Channel(s) : 2 channels
Channel positions : Front: L R
Sampling rate : 48.0 KHz
Frame rate : 31.250 fps (1536 spf)
Compression mode : Lossy
Stream size : 77.2 MiB (7%)
Alignment : Split accross interleaves
Interleave, duration : 42 ms (1.00 video frame)
Interleave, preload duratio : 500 ms
Audio #2
ID : 2
Format : AC-3
Format/Info : Audio Coding 3
Mode extension : CM (complete main)
Format settings, Endianness : Big
Codec ID : 2000
Duration : 56mn 15s
Bit rate mode : Constant
Bit rate : 384 Kbps
Channel(s) : 6 channels
Channel positions : Front: L C R, Side: L R, LFE
Sampling rate : 48.0 KHz
Frame rate : 31.250 fps (1536 spf)
Compression mode : Lossy
Stream size : 154 MiB (15%)
Alignment : Split accross interleaves
Interleave, duration : 42 ms (1.00 video frame)
Interleave, preload duratio : 500 ms

Скриншоты

-
Вне форума [Профиль] [ЛС]
Похожие темы
Форум Тема Автор Торрент Отв. Посл. сообщение
./templates/default/images/folder_dl.gif Компьютерная литература Hertzog and Ma/Херцог и Ма | The Debian Administrator's Handbook/Настольная книга администратора Debian (2013) [PDF, EPUB] Omen
1 | 0

0 | 819

6

2014-05-05 21:10
Omen Последнее
./templates/default/images/folder_dl.gif Фантастика, фэнтези, ужасы, мистика Антон Емельянов, Сергей Савинов | Настоящая магия (2018) [FB2] }{@R0N
1 | 0

0 | 113

3

2018-05-23 12:46
}{@R0N Последнее
Показать сообщения:    
Ответить на тему

Текущее время: Сегодня 00:21

Часовой пояс: GMT + 3



Вы не можете начинать темы
Вы не можете отвечать на сообщения
Вы не можете редактировать свои сообщения
Вы не можете удалять свои сообщения
Вы не можете голосовать в опросах
Вы не можете прикреплять файлы к сообщениям
Вы не можете скачивать файлы