Сегодня идет свободное скачивание без начисления Download

Доктор Хаус / HOUSE M.D. / Сезон: 5 / Серии: 1-24 из 24 (Деран Сарафян, Дэвид Платт, Фред Гербер и другие...) [2008, драма, BDRip 1080p 10bit] MVO (Кравец) + MVO (Домашний) + Original + Subs (Rus, Eng)

Ответить на тему
 
Автор
Сообщение

Omen ®

Стаж: 5 лет 10 месяцев

Сообщений: 184329

Торрент-статистика

Пост 17-Июн-2016 00:00

[Цитировать]

Доктор Хаус / HOUSE M.D.
Год выпуска: 2008
Страна: США
Жанр: драма
Продолжительность: ~ 44 мин.
Перевод 1: Профессиональный (многоголосый закадровый) Кравец
Перевод 2: Профессиональный (многоголосый закадровый) Домашний
Режиссёр: Деран Сарафян, Дэвид Платт, Фред Гербер и другие...
В ролях: Хью Лори, Лиза Эдельштейн, Роберт Шон Леонард, Джесси Спенсер, Омар Эппс, Дженнифер Моррисон и другие...
Описание: Небритый «сукин сын», наглый и гениальный врач-диагност с тростью.
Таким предстал перед зрителями герой одноименного сериала – Доктор Хаус. На фоне смертельных недугов пациентов юмор и цинизм доктора Грегори Хауса выглядел просто шокирующим. Так и началось шествие по миру телесериала, где соседствуют смерть и юмор.
«Все врут» - говорит нам с экрана доктор Хаус. Не лукавят, обманывают, а именно врут.
Из уст человека (пусть и выдуманного, существующего на экране и в головах сценаристов), лечащего людей от смертельных болезней, данная фраза звучит просто дико. Согласно уставу профессии врач, спасающий жизни больных, должен любить их, быть добрым, вселять уверенность. А как иначе? Оказывается, иначе – можно!
Качество: BDRip 1080p 10bit
Контейнер: MKV
Видео: x264 10bit, 1080p, 16:9, 23.976, 9700 kbps/s
Аудио 1: Russian: 48 kHz, AC3, 3/2 (L,C,R,l,r) + LFE ch, 448.00 kbps
Аудио 2: Russian: 48 kHz, AC3, 2/0 (L,R) ch, 192.00 kbps
Аудио 3: English: 48 kHz, AC3, 3/2 (L,C,R,l,r) + LFE ch, 348.00 kbps
Субтитры: русские, английские (srt)

Список серий

01. Смерть меняет всё (Dying Changes Everything)
02. Не рак (Not Cancer)
03. Осложнения (Adverse Events)
04. Родовые травмы (Birthmarks)
05. Везучая Тринадцатая (Lucky Thirteen)
06. Радость (Joy)
07. Зуд (The Itch)
08. Без опеки (Emancipation)
09. Крайний шаг (Last Resort)
10. Пусть едят торт (Let Them Eat Cake)
11. Радость миру (Joy to the World)
12. Без боли (Painless)
13. Большой ребёнок (Big Baby)
14. Высшее благо (The Greater Good)
15. Неверующий (Unfaithful)
16. Лучшая сторона (The Softer Side)
17. Социальный контракт (The Social Contract)
18. Сюда, Киска (Here Kitty)
19. Взаперти (Locked In)
20. Простое объяснение (Simple Explanation)
21. Спасители (Saviors )
22. Хаус разделенный (House Divided)
23. Под моей кожей (Under My Skin)
24. Обе половинки вместе (Both Sides Now)

MediaInfo

General
Unique ID : 237386463334364914915818977920932742867 (0xB296F845A68CD097B9B38B8DF5C186D3)
Complete name : L:\TV\House\Season 5\House.S05E01.mkv
Format : Matroska
Format version : Version 4 / Version 2
File size : 1.91 GiB
Duration : 43mn 30s
Overall bit rate : 6 289 Kbps
Encoded date : UTC 2016-06-16 18:36:57
Writing application : mkvmerge v9.1.0 ('Little Earthquakes') 64bit
Writing library : libebml v1.3.3 + libmatroska v1.4.4
Cover : Yes
Attachments : Cover.jpg
Video
ID : 1
Format : AVC
Format/Info : Advanced Video Codec
Format profile : High 10@L4.1
Format settings, CABAC : Yes
Format settings, ReFrames : 4 frames
Codec ID : V_MPEG4/ISO/AVC
Duration : 43mn 29s
Bit rate : 5 301 Kbps
Width : 1 920 pixels
Height : 1 080 pixels
Display aspect ratio : 16:9
Frame rate mode : Constant
Frame rate : 23.976 (24000/1001) fps
Color space : YUV
Chroma subsampling : 4:2:0
Bit depth : 10 bits
Scan type : Progressive
Bits/(Pixel*Frame) : 0.107
Stream size : 1.61 GiB (84%)
Writing library : x264 core 148 r2665 a01e339
Encoding settings : cabac=1 / ref=4 / deblock=1:-2:-1 / analyse=0x3:0x133 / me=umh / subme=10 / psy=1 / psy_rd=1.00:0.20 / mixed_ref=1 / me_range=24 / chroma_me=1 / trellis=2 / 8x8dct=1 / cqm=0 / deadzone=21,11 / fast_pskip=0 / chroma_qp_offset=-3 / threads=4 / lookahead_threads=1 / sliced_threads=0 / nr=0 / decimate=1 / interlaced=0 / bluray_compat=0 / constrained_intra=0 / bframes=6 / b_pyramid=2 / b_adapt=2 / b_bias=0 / direct=3 / weightb=1 / open_gop=0 / weightp=2 / keyint=250 / keyint_min=23 / scenecut=40 / intra_refresh=0 / rc_lookahead=60 / rc=crf / mbtree=1 / crf=18.0 / qcomp=0.60 / qpmin=0 / qpmax=81 / qpstep=4 / ip_ratio=1.40 / aq=1:1.00
Language : English
Default : Yes
Forced : No
Audio #1
ID : 2
Format : AC-3
Format/Info : Audio Coding 3
Mode extension : CM (complete main)
Format settings, Endianness : Big
Codec ID : A_AC3
Duration : 43mn 30s
Bit rate mode : Constant
Bit rate : 384 Kbps
Channel(s) : 6 channels
Channel positions : Front: L C R, Side: L R, LFE
Sampling rate : 48.0 KHz
Frame rate : 31.250 fps (1536 spf)
Compression mode : Lossy
Stream size : 120 MiB (6%)
Title : Kravec
Language : Russian
Default : Yes
Forced : No
Audio #2
ID : 3
Format : AC-3
Format/Info : Audio Coding 3
Mode extension : CM (complete main)
Format settings, Endianness : Big
Codec ID : A_AC3
Duration : 43mn 30s
Bit rate mode : Constant
Bit rate : 192 Kbps
Channel(s) : 2 channels
Channel positions : Front: L R
Sampling rate : 48.0 KHz
Frame rate : 31.250 fps (1536 spf)
Compression mode : Lossy
Stream size : 59.7 MiB (3%)
Title : Domashniy
Language : Russian
Default : No
Forced : No
Audio #3
ID : 4
Format : AC-3
Format/Info : Audio Coding 3
Mode extension : CM (complete main)
Format settings, Endianness : Big
Codec ID : A_AC3
Duration : 43mn 29s
Bit rate mode : Constant
Bit rate : 384 Kbps
Channel(s) : 6 channels
Channel positions : Front: L C R, Side: L R, LFE
Sampling rate : 48.0 KHz
Frame rate : 31.250 fps (1536 spf)
Compression mode : Lossy
Stream size : 119 MiB (6%)
Title : Eng
Language : English
Default : No
Forced : No
Text #1
ID : 5
Format : UTF-8
Codec ID : S_TEXT/UTF8
Codec ID/Info : UTF-8 Plain Text
Duration : 42mn 34s
Bit rate : 178 bps
Count of elements : 769
Stream size : 55.6 KiB (0%)
Title : Russian
Language : Russian
Default : No
Forced : No
Text #2
ID : 6
Format : UTF-8
Codec ID : S_TEXT/UTF8
Codec ID/Info : UTF-8 Plain Text
Duration : 42mn 13s
Bit rate : 96 bps
Count of elements : 783
Stream size : 29.9 KiB (0%)
Title : English SRT
Language : English
Default : No
Forced : No
Text #3
ID : 7
Format : PGS
Muxing mode : zlib
Codec ID : S_HDMV/PGS
Codec ID/Info : Picture based subtitle format used on BDs/HD-DVDs
Duration : 42mn 13s
Bit rate : 27.4 Kbps
Count of elements : 1576
Stream size : 8.29 MiB (0%)
Title : English
Language : English
Default : No
Forced : No
Menu
00:00:00.000 : en:00:00:00.000
00:02:08.837 : en:00:02:08.837
00:10:11.736 : en:00:10:11.736
00:18:57.928 : en:00:18:57.928
00:27:00.285 : en:00:27:00.285
00:42:47.690 : en:00:42:47.690

Скриншоты

Вне форума [Профиль] [ЛС]
Похожие темы
Форум Тема Автор Торрент Отв. Посл. сообщение
./templates/default/images/folder_dl.gif Новинки (HD|DVD|BD|WEB|TV|SAT|PDTV|-Rip) Доктор Стрэндж / Doctor Strange (Скотт Дерриксон / Scott Derrickson) [2016 г., фантастика, фэнтези, боевик, приключения, BDRip] Dub (Лицензия) + Original (Eng) Omen
1 | 0

0 | 1296

13

2016-03-09 12:55
Omen Последнее
./templates/default/images/folder_dl.gif Медицина и Здоровье Александр Мясников | Энциклопедия доктора Мясникова о самом главном [3 тома] (2015-2017) [FB2] }{@R0N
1 | 0

0 | 7528

24

2017-11-20 21:19
}{@R0N Последнее
Показать сообщения:    
Ответить на тему

Текущее время: Сегодня 16:43

Часовой пояс: GMT + 3



Вы не можете начинать темы
Вы не можете отвечать на сообщения
Вы не можете редактировать свои сообщения
Вы не можете удалять свои сообщения
Вы не можете голосовать в опросах
Вы не можете прикреплять файлы к сообщениям
Вы не можете скачивать файлы