Сегодня идет свободное скачивание без начисления Download

Шёпот / The Whispers / Сезон: 1 / Серии: 1-13 из 13 (Чарльз Бисон, П.Дж. Пеше, Холли Дэйл) [2015, Фантастика, триллер, драма, WEB-DLRip] MVO (LostFilm) + Original + Subs (Eng)

Ответить на тему
 
Автор
Сообщение

Omen ®

Стаж: 6 лет 1 месяц

Сообщений: 184308

Торрент-статистика

Пост 17-Июн-2016 00:00

[Цитировать]

Шёпот | The Whispers- Год выпуска: 2015
Страна: США
Жанр: Фантастика, триллер, драма
Продолжительность: 00:42:00
Перевод: Профессиональный (многоголосый закадровый) LostFilm--Режиссёр: Чарльз Бисон, П.Дж. Пеше, Холли Дэйл
В ролях: Тейт Бёрчмор, Бэрри Слоун, Лили Рэйб, Кайли Роджерс, Кайл Харрисон Брейткопф, Дэвид Эндрюс, Эбби Райдер Фортсон, Джеймисон Джонс, Майло Вентимилья и др.-Описание: Инопланетные силы проникают в правительство США и вызывают хаос, при этом остаются незамеченными. Правительственным агентам удается выяснить, что пришельцы используют для воплощения своих целей самое дорогое, что у нас есть — детей…--Релиз от Celta88
Рип: ЛП
Работа со звуком: BS666 , SerGV, k-marat-s
--Сэмпл: http://multi-up.com/1106174-Качество: WEB-DLRip
Формат: AVI
Видео: XVID, 720x400 (16:9), 23.976 fps, ~2000 kbps avg, 0.29 bit/pixel
Аудио Rus: AC3 Dolby Digital, 48.0 KHz, 6 channels, 384 Kbps avg
Аудио Eng: AC3 Dolby Digital, 48.0 KHz, 6 channels, 384 Kbps avg
Субтитры: Eng

MediaInfo

General
Complete name : E:\Шёпот (Сезон 1) LostFilm\The.Whispers.s01e01.rus.eng.Celta88.avi
Format : AVI
Format/Info : Audio Video Interleave
File size : 836 MiB
Duration : 42mn 2s
Overall bit rate : 2 782 Kbps
Writing application : VirtualDubMod 1.5.10.2 (build 2540/release)
Writing library : VirtualDubMod build 2540/release
Video
ID : 0
Format : MPEG-4 Visual
Format profile : Advanced Simple@L5
Format settings, BVOP : 1
Format settings, QPel : No
Format settings, GMC : No warppoints
Format settings, Matrix : Default (MPEG)
Codec ID : XVID
Codec ID/Hint : XviD
Duration : 42mn 2s
Bit rate : 2 000 Kbps
Width : 720 pixels
Height : 400 pixels
Display aspect ratio : 16:9
Frame rate : 23.976 (23976/1000) fps
Color space : YUV
Chroma subsampling : 4:2:0
Bit depth : 8 bits
Scan type : Progressive
Compression mode : Lossy
Bits/(Pixel*Frame) : 0.290
Stream size : 601 MiB (72%)
Writing library : XviD 73
Audio #1
ID : 1
Format : AC-3
Format/Info : Audio Coding 3
Mode extension : CM (complete main)
Format settings, Endianness : Big
Codec ID : 2000
Duration : 42mn 2s
Bit rate mode : Constant
Bit rate : 384 Kbps
Channel(s) : 6 channels
Channel positions : Front: L C R, Side: L R, LFE
Sampling rate : 48.0 KHz
Frame rate : 31.250 fps (1536 spf)
Compression mode : Lossy
Stream size : 115 MiB (14%)
Alignment : Split accross interleaves
Interleave, duration : 42 ms (1.00 video frame)
Interleave, preload duratio : 500 ms
Audio #2
ID : 2
Format : AC-3
Format/Info : Audio Coding 3
Mode extension : CM (complete main)
Format settings, Endianness : Big
Codec ID : 2000
Duration : 42mn 2s
Bit rate mode : Constant
Bit rate : 384 Kbps
Channel(s) : 6 channels
Channel positions : Front: L C R, Side: L R, LFE
Sampling rate : 48.0 KHz
Frame rate : 31.250 fps (1536 spf)
Compression mode : Lossy
Stream size : 115 MiB (14%)
Alignment : Split accross interleaves
Interleave, duration : 42 ms (1.00 video frame)
Interleave, preload duratio : 500 ms

Скриншоты

-
Вне форума [Профиль] [ЛС]
Показать сообщения:    
Ответить на тему

Текущее время: Сегодня 19:17

Часовой пояс: GMT + 3



Вы не можете начинать темы
Вы не можете отвечать на сообщения
Вы не можете редактировать свои сообщения
Вы не можете удалять свои сообщения
Вы не можете голосовать в опросах
Вы не можете прикреплять файлы к сообщениям
Вы не можете скачивать файлы