Сегодня идет свободное скачивание без начисления Download

Последний корабль / The Last Ship / Сезон: 1 / Серии: 1-10 из 10 (Майкл Кэтлман, Джек Бендер, Пол Холахан) [2014, Фантастика, боевик, триллер, драма, WEB-DLRip] MVO (LostFilm) + Original + Subs (Eng)

Ответить на тему
 
Автор
Сообщение

Omen ®

Стаж: 5 лет 6 месяцев

Сообщений: 186946

Торрент-статистика

Пост 16-Июн-2016 15:33

[Цитировать]

Последний корабль | The Last Ship- Год выпуска: 2014
Страна: США
Жанр: Фантастика, боевик, триллер, драма
Продолжительность: 00:45:00
Перевод: Профессиональный (многоголосый закадровый) | LostFilm--Режиссёр: Майкл Кэтлман, Джек Бендер, Пол Холахан
В ролях: Рона Митра, Эрик Дэйн, Адам Болдуин, Михаэлла МакМанус, Трэвис Ван Винкл, Чарльз Парнелл, Кристина Элмор, Джоко Симс, Джон Пайпер-Фергюсон и др.-Описание: Глобальная пандемия уничтожает восемьдесят процентов населения планеты. Военный эсминец Соединенных Штатов отправляется в долгое путешествие с единственной задачей — выживать ровно столько, сколько потребуется для создания вакцины. И таким образом спасти человечество от вымирания.
Последний корабль — это экранизация постапокаллиптической новеллы, написанной в 1988 году американским писателем Уильямом Брайнкли. По сюжету книги в центре событий находится американский эсминец Натан Джеймс, который находится в плавании в тот момент, когда начинается ядерная война, уничтожающая всю цивилизацию на Земле. Команда занимается поисками безопасного места, где можно было бы высадиться и встретить хоть кого-то, кто мог выжить во время этой всемирной катастрофы. Ситуация на корабле накаляется и назревает бунт, но его удается избежать благодаря опытному капитану. Не смотря на то, что по сюжету книги экипаж обнаруживает последнюю подводную лодку СССР и входит с ней в контакт, на канале TNT заявили, что концовка сериала будет изменена. Ведь СССР уже не существует и не рассматривается как враг.
Сценарий сериала Последний корабль не будет в точности повторять историю из книги, а будет видоизменен под сегодняшние реалии. Вместо ядерной катастрофы, люди столкнуться с неизлечимым заболеванием, которое будет угрожать всему живому на Земле.--Релиз от
Рип: ЛП
Работа со звуком: Messafan
--Сэмпл: http://multi-up.com/1106097-Качество: WEB-DLRip
Формат: AVI
Видео: XVID, 720x400 (16:9), 23.976 fps, ~2000 kbps avg, 0.29 bit/pixel
Аудио Rus: AC3 Dolby Digital, 48.0 KHz, 6 channels, 384 Kbps avg
Аудио Eng: AC3 Dolby Digital, 48.0 KHz, 6 channels, 384 Kbps avg
Субтитры: Eng

MediaInfo

General
Complete name : F:\Последний корабль (Сезон 1) LostFilm\The.Last.Ship.s01e01.rus.eng.CasStudio.avi
Format : AVI
Format/Info : Audio Video Interleave
File size : 906 MiB
Duration : 45mn 32s
Overall bit rate : 2 780 Kbps
Writing application : VirtualDubMod 1.5.10.2 (build 2540/release)
Writing library : VirtualDubMod build 2540/release
Video
ID : 0
Format : MPEG-4 Visual
Format profile : Advanced Simple@L5
Format settings, BVOP : 1
Format settings, QPel : No
Format settings, GMC : No warppoints
Format settings, Matrix : Default (MPEG)
Codec ID : XVID
Codec ID/Hint : XviD
Duration : 45mn 32s
Bit rate : 1 998 Kbps
Width : 720 pixels
Height : 400 pixels
Display aspect ratio : 16:9
Frame rate : 23.976 (23976/1000) fps
Color space : YUV
Chroma subsampling : 4:2:0
Bit depth : 8 bits
Scan type : Progressive
Compression mode : Lossy
Bits/(Pixel*Frame) : 0.289
Stream size : 651 MiB (72%)
Writing library : XviD 65
Audio #1
ID : 1
Format : AC-3
Format/Info : Audio Coding 3
Mode extension : CM (complete main)
Format settings, Endianness : Big
Codec ID : 2000
Duration : 45mn 32s
Bit rate mode : Constant
Bit rate : 384 Kbps
Channel(s) : 6 channels
Channel positions : Front: L C R, Side: L R, LFE
Sampling rate : 48.0 KHz
Frame rate : 31.250 fps (1536 spf)
Compression mode : Lossy
Stream size : 125 MiB (14%)
Alignment : Split accross interleaves
Interleave, duration : 42 ms (1.00 video frame)
Interleave, preload duratio : 500 ms
Audio #2
ID : 2
Format : AC-3
Format/Info : Audio Coding 3
Mode extension : CM (complete main)
Format settings, Endianness : Big
Codec ID : 2000
Duration : 45mn 32s
Bit rate mode : Constant
Bit rate : 384 Kbps
Channel(s) : 6 channels
Channel positions : Front: L C R, Side: L R, LFE
Sampling rate : 48.0 KHz
Frame rate : 31.250 fps (1536 spf)
Compression mode : Lossy
Stream size : 125 MiB (14%)
Alignment : Split accross interleaves
Interleave, duration : 42 ms (1.00 video frame)
Interleave, preload duratio : 500 ms

Скриншоты

-

Внимание! Раздача ведётся путём добавления новых серий!

Внимание! Раздача ведётся путём добавления новых серий; при каждом добавлении создаётся новый торрент.
Чтобы начать докачку новой серии, пользователям необходимо сделать следующее:

1. Остановить скачивание.
2. Удалить старый торрент у себя из клиента (старые серии удалять не надо).
3. Скачать новый торрент и запустить его у себя в клиенте вместо старого, при этом указать клиенту путь в старую папку куда и должно происходить скачивание новых серий.

Ваш клиент при этом должен произвести хеширование (проверку) старой папки (если не производит сам - помогите ему сделать это), и будет докачивать только те серии которых у вас ещё нет. Старые серии при этом не удаляются, а продолжают раздаваться!
Eсли вы уже удалили старые серии, то предотвратить повторную закачку старых серий можно, отжав галочку в соответсвующих местах при запуске нового торрента.
-
Вне форума [Профиль] [ЛС]
Похожие темы
Форум Тема Автор Торрент Отв. Посл. сообщение
./templates/default/images/folder_dl.gif Фильмы 2011-2016 Последний вагон. Весна (Антон Калинкин) [2015, Россия, триллер, WEB-DL 720p] + Original Rus Omen
1 | 0

2 | 1097

2

2016-01-02 08:16
Dracula Последнее
./templates/default/images/folder_dl.gif Обучающее видео Oleg Lav | Как создать флешку восстановления Windows после сбоя из .wim файла работающей ОС (2016) PCRec [H.264/720p] Omen
1 | 0

0 | 659

16

2016-03-09 06:23
Omen Последнее
./templates/default/images/folder_dl.gif Компьютерная литература Михаил Пантаев | Матанализ с человеческим лицом, или Как выжить после предельного перехода. Полный курс математического анализа. Том 2 (2016) [PDF] moralis
1 | 0

0 | 1518

13

2016-03-09 21:50
moralis Последнее
./templates/default/images/folder_dl.gif Справочники, энциклопедии и словари Михаил Пантаев | Матанализ с человеческим лицом, или Как выжить после предельного перехода. Полный курс математического анализа. Том 1 (2015) [PDF] moralis
1 | 0

0 | 1423

9

2016-03-09 21:51
moralis Последнее
./templates/default/images/folder_dl.gif Фантастика, фэнтези, ужасы, мистика Андрей Круз | После (2018) [MP3] }{@R0N
1 | 0

0 | 202

5

2018-03-01 22:43
}{@R0N Последнее
./templates/default/images/folder_dl.gif Новинки (BD|HDTV|DVD) Звёздные войны: Последние джедаи / Star Wars: The Last Jedi (Райан Джонсон) [2017, фантастика, фэнтези, боевик, приключения, UHD BDRemux 2160p] DUB | iTunes Theseus
1 | 0

0 | 329

2

2018-03-15 14:03
Theseus Последнее
Показать сообщения:    
Ответить на тему

Текущее время: Сегодня 06:18

Часовой пояс: GMT + 3



Вы не можете начинать темы
Вы не можете отвечать на сообщения
Вы не можете редактировать свои сообщения
Вы не можете удалять свои сообщения
Вы не можете голосовать в опросах
Вы не можете прикреплять файлы к сообщениям
Вы не можете скачивать файлы