Сегодня идет свободное скачивание без начисления Download

Боишься ли ты темноты? / Are you afraid of the dark? / Сезон: 1 / Серии: 1-11 (13) (Рон Оливер / Ron Oliver, Д. Дж. МакХейл / D.J. MacHale) [1992, детский, мистика, DVDRip] MVO

Ответить на тему
 
Автор
Сообщение

Omen ®

Стаж: 5 лет 9 месяцев

Сообщений: 184433

Торрент-статистика

Пост 15-Июн-2016 21:03

[Цитировать]

Боишься ли ты темноты? / Are you afraid of the dark?
Страна: Канада
Сезон: 1 (7) сезон
Жанр: детский, мистика
Год выпуска: 1992
Продолжительность: 11 х ~ 00:23:00
Перевод: Профессиональный (многоголосый, закадровый), любительский (многоголосый, закадровый)
Оригинальная аудиодорожка: нет
Субтитры: Нет
Режиссер: Рон Оливер / Ron Oliver, Д. Дж. МакХейл / D.J. MacHale
В ролях: Чарли Хофхаймер, Грегори Смит, Росс Халл, Дэниэл ДеСанто, Рейчел Блэнчард, Натаниель Моро, Рэйне Паре-Коулл, Джоди Рестер, Джейсон Алишаран
Описание: Группа ребятишек, называющих себя «Полуночным сообществом», собирается практически каждый вечер у костра и рассказывает друг другу страшные истории.
[url=viewtopic.php?t=3700261]Исходник -- DVDRemux[/url]
Семпл
Качество видео: DVDRip
Формат видео: AVI
Видео: ~1600 Kbps, 720x544, 29.970 fps, XviD
Аудио: 128 Kbps, 48 KHz, 2 ch, MP3

Список серий в раздаче

1 сезон
1х01 История о такси-призраке
1х02 История о смехе в темноте
1х03 История об одиноком призраке
1х04 История про скрюченную лапу
1х05 История о голодных собаках
1х08 История о ночных соседях
1х09 История об ученике чернокнижника
1х10 История о Джеке и гноме
1х11 История о тёмной музыке
1х12 История о королеве выпускного бала
1х13 История о вечном игроке

МедиаИнфо

General
Complete name : E:\ Are_you_afraid_of_the_dark\1х01 История о такси-призраке.avi
Format : AVI
Format/Info : Audio Video Interleave
File size : 315 MiB
Duration : 23mn 36s
Overall bit rate : 1 864 Kbps
Writing application : VirtualDubMod 1.5.10.3 | www.virtualdub-fr.org || (build 2550/release)
Writing library : VirtualDubMod build 2550/release
Video
ID : 0
Format : MPEG-4 Visual
Format profile : Advanced Simple@L5
Format settings, BVOP : Yes
Format settings, QPel : No
Format settings, GMC : No warppoints
Format settings, Matrix : Custom
Codec ID : XVID
Codec ID/Hint : XviD
Duration : 23mn 36s
Bit rate : 1 724 Kbps
Width : 720 pixels
Height : 544 pixels
Display aspect ratio : 4:3
Frame rate : 29.970 fps
Resolution : 8 bits
Colorimetry : 4:2:0
Scan type : Progressive
Bits/(Pixel*Frame) : 0.147
Stream size : 291 MiB (93%)
Writing library : XviD 1.1.2 (UTC 2006-11-01)
Audio
ID : 1
Format : MPEG Audio
Format version : Version 1
Format profile : Layer 3
Codec ID : 55
Codec ID/Hint : MP3
Duration : 23mn 36s
Bit rate mode : Constant
Bit rate : 128 Kbps
Channel(s) : 2 channels
Sampling rate : 48.0 KHz
Stream size : 21.6 MiB (7%)
Alignment : Aligned on interleaves
Interleave, duration : 33 ms (1.00 video frame)
Interleave, preload duration : 504 ms

Скриншоты

Вне форума [Профиль] [ЛС]
Показать сообщения:    
Ответить на тему

Текущее время: Сегодня 17:31

Часовой пояс: GMT + 3



Вы не можете начинать темы
Вы не можете отвечать на сообщения
Вы не можете редактировать свои сообщения
Вы не можете удалять свои сообщения
Вы не можете голосовать в опросах
Вы не можете прикреплять файлы к сообщениям
Вы не можете скачивать файлы