Сегодня идет свободное скачивание без начисления Download

Полный дом животных / Tiere bis unters Dach / Сезон: 3 / Серии: 1-13 из 13 (Бригитта Дрезевски, Berno Kürten, Андреас Морелль) [2013, семейный, HDTVRip] MVO + Original

Ответить на тему
 
Автор
Сообщение

Omen ®

Стаж: 5 лет 10 месяцев

Сообщений: 184329

Торрент-статистика

Пост 15-Июн-2016 18:00

[Цитировать]

Полный дом животных / Tiere bis unters Dach
Год выпуска: 2013
Страна: Германия
Жанр: семейный
Продолжительность: 00:28:00
Перевод: Профессиональный (многоголосый закадровый)
Режиссёр: Бригитта Дрезевски, Berno Kürten, Андреас Морелль
В ролях: Юли Марлен Шук, Мориц Кнапп, Табеа Хуг, Флориана Даниэль, Хайкко Дойчманн, Занне Шнапп, Михаэль Зидерис.
Описание: Ветеринар Филипп Хансен открывает клинику для животных на большой старой вилле, в которую он недавно переехал со своей семьёй. Юных друзей ждут невероятные приключения: спасение пони, освобождение пасхального ягненка, преследование воображаемого убийцы котенка и много другие.
Сэмпл: http://sendfile.su/1157824
Качество: HDTVRip
Формат: AVI
Видео: XviD, 640х360, 16:9, 25,000 кадров/сек, 2295 Кбит/сек
Аудио: MP3, 48,0 КГц, 2 канала, 192 Кбит/сек, [русский, MVO]
Аудио 2: MP3, 48,0 КГц, 2 канала, 192 Кбит/сек, [немецкий]
Субтитры: нет

Список серий

Эпизод 1 Königin der Tiere
Эпизод 2 Kleiner Hund, was nun?
Эпизод 3 Komischer Kauz
Эпизод 4 Party Animals
Эпизод 5 Die Bananenspinne
Эпизод 6 Die Millionenkatze
Эпизод 7 Der Wunderheiler
Эпизод 8 Rinderwahn
Эпизод 9 Fuchsjagd
Эпизод 10 Trüffelschweine
Эпизод 11 Ausgesetzt!
Эпизод 12 Goldesel
Эпизод 13 Die Legende von Waldau

MediaInfo

Общее
Полное имя : C:\Раздавать\Полный дом животных 3 сезон\Полный дом животных. 3.01.avi
Формат : AVI
Формат/Информация : Audio Video Interleave
Размер файла : 552 Мбайт
Продолжительность : 28 м.
Общий поток : 2690 Кбит/сек
Программа кодирования : VirtualDubMod 1.5.4.1 (build 2178/release)
Библиотека кодирования : VirtualDubMod build 2178/release
Видео
Идентификатор : 0
Формат : MPEG-4 Visual
Профиль формата : Simple@L1
Параметр BVOP формата : Нет
Параметр QPel формата : Нет
Параметр GMC формата : Без точки перехода
Параметр матрицы формата : Default (H.263)
Идентификатор кодека : XVID
Идентификатор кодека/Подсказка : XviD
Продолжительность : 28 м.
Битрейт : 2295 Кбит/сек
Ширина : 640 пикселей
Высота : 360 пикселей
Соотношение сторон : 16:9
Частота кадров : 25,000 кадров/сек
Цветовое пространство : YUV
Субдискретизация насыщенности : 4:2:0
Битовая глубина : 8 бит
Тип развёртки : Прогрессивная
Метод сжатия : С потерями
Бит/(Пиксели*Кадры) : 0.398
Размер потока : 471 Мбайт (85%)
Библиотека кодирования : Lavc56.0.101
Аудио #1
Идентификатор : 1
Формат : MPEG Audio
Версия формата : Version 1
Профиль формата : Layer 3
Режим : Joint stereo
Расширение режима : MS Stereo
Идентификатор кодека : 55
Идентификатор кодека/Подсказка : MP3
Продолжительность : 28 м.
Вид битрейта : Постоянный
Битрейт : 192 Кбит/сек
Каналы : 2 канала
Частота : 48,0 КГц
Метод сжатия : С потерями
Размер потока : 39,2 Мбайт (7%)
Выравнивание : Разделение по промежуткам
Продолжительность промежутка : 40 мс. (1,00 видеокадр)
Время предзагрузки промежутка : 500 мс.
Библиотека кодирования : LAME3.98.2
Аудио #2
Идентификатор : 2
Формат : MPEG Audio
Версия формата : Version 1
Профиль формата : Layer 3
Режим : Joint stereo
Расширение режима : MS Stereo
Идентификатор кодека : 55
Идентификатор кодека/Подсказка : MP3
Продолжительность : 28 м.
Продолжительность оригинала : 28 м.
Вид битрейта : Постоянный
Битрейт : 192 Кбит/сек
Каналы : 2 канала
Частота : 48,0 КГц
Метод сжатия : С потерями
Размер потока : 38,9 Мбайт (7%)
Выравнивание : Разделение по промежуткам
Продолжительность промежутка : 40 мс. (1,00 видеокадр)
Время предзагрузки промежутка : 500 мс.
Вне форума [Профиль] [ЛС]
Похожие темы
Форум Тема Автор Торрент Отв. Посл. сообщение
./templates/default/images/folder_dl.gif Обучающее видео Специалист | Linux (Ubuntu). Уровень 2. Программирование в Linux на C/C++ [Полный курс] [2011] PCRec Omen
0 | 1

0 | 1995

7

2013-06-05 22:26
Omen Последнее
./templates/default/images/folder_dl.gif Компьютерная литература Кишори Шаран | Java 9. Полный обзор нововведений. Для быстрого ознакомления и миграции (2018) [PDF] }{@R0N
1 | 0

0 | 493

5

2018-03-09 18:54
}{@R0N Последнее
./templates/default/images/folder_dl.gif Компьютерная литература Иван Жуков | Компьютер и ноутбук. Полный курс обучения и работы (2018) [PDF] }{@R0N
1 | 0

0 | 359

5

2018-08-23 22:09
}{@R0N Последнее
Показать сообщения:    
Ответить на тему

Текущее время: Сегодня 03:24

Часовой пояс: GMT + 3



Вы не можете начинать темы
Вы не можете отвечать на сообщения
Вы не можете редактировать свои сообщения
Вы не можете удалять свои сообщения
Вы не можете голосовать в опросах
Вы не можете прикреплять файлы к сообщениям
Вы не можете скачивать файлы