Сегодня идет свободное скачивание без начисления Download

Перевозчик / Transporter: The Series / Сезон: 1 / Серии: 1-12 из 12 (Брэд Тёрнер, Энди Микита, Т.Дж. Скотт) [2012, Боевик, экшн, драма, криминал, HDRip] MVO (Первый канал) + Original

Ответить на тему
 
Автор
Сообщение

Omen ®

Стаж: 6 лет 1 месяц

Сообщений: 184308

Торрент-статистика

Пост 14-Июн-2016 00:00

[Цитировать]

Перевозчик | Transporter: The Series- Год выпуска: 2012
Страна: Канада, Франция, США, Германия
Жанр: Боевик, экшн, драма, криминал
Продолжительность: 00:45:00
Перевод: Профессиональный (многоголосый закадровый) Первый канал--Режиссёр: Брэд Тёрнер, Энди Микита, Т.Дж. Скотт
В ролях: Крис Вэнс, Андреа Ошварт, Дэльфин Шанеак, Чарли Хюбнер, Франсуа Берлеан, Джулиан Ричингс, Жан-Поль Мано, Р.Дж. Пэрриш, Адам МакДональд и др.-Описание: Перевозчик — экшн-телесериал по мотивам одноимённой серии фильмов Люка Бессона. В центре сюжета бывший сотрудник Сил специального назначения Фрэнк Мартин, ныне перевозчик разных грузов. Он не задает лишних вопросов и всегда соблюдает чёткие правила: «Никогда не изменяй условия сделки», «Никаких имён», «Никогда не открывать груз». Его точность вождения и боевые навыки позволяют ему выжить в самых опасных ситуациях на протяжении всей миссии.--Релиз от miha2154--Сэмпл: http://multi-up.com/1105733-Качество: HDRip
Формат: AVI
Видео: XVID, 624x352 (16:9), 25.000 fps, 1330 kbps avg, 0.24 bit/pixel
Аудио Rus: MP3, 48.0 KHz, 2 channels, 192 kbps avg
Аудио Eng: MP3, 48.0 KHz, 2 channels, 192 kbps avg
Субтитры: отсутствуют

MediaInfo

General
Complete name : E:\Перевозчик (Сезон 1) Первый канал\1х01 Дочь генерала (The General's Daughter).avi
Format : AVI
Format/Info : Audio Video Interleave
File size : 565 MiB
Duration : 45mn 38s
Overall bit rate : 1 730 Kbps
Writing application : VirtualDubMod 1.5.10.3 (build 2550/release)
Writing library : VirtualDubMod build 2550/release
Video
ID : 0
Format : xvid
Codec ID : xvid
Duration : 45mn 38s
Bit rate : 1 331 Kbps
Width : 624 pixels
Height : 352 pixels
Display aspect ratio : 16:9
Frame rate : 25.000 fps
Bits/(Pixel*Frame) : 0.242
Stream size : 435 MiB (77%)
Audio #1
ID : 1
Format : MPEG Audio
Format version : Version 1
Format profile : Layer 3
Mode : Joint stereo
Mode extension : MS Stereo
Codec ID : 55
Codec ID/Hint : MP3
Duration : 45mn 38s
Bit rate mode : Constant
Bit rate : 192 Kbps
Channel(s) : 2 channels
Sampling rate : 48.0 KHz
Compression mode : Lossy
Stream size : 62.7 MiB (11%)
Alignment : Split accross interleaves
Interleave, duration : 40 ms (1.00 video frame)
Interleave, preload duratio : 500 ms
Audio #2
ID : 2
Format : MPEG Audio
Format version : Version 1
Format profile : Layer 3
Mode : Joint stereo
Mode extension : MS Stereo
Codec ID : 55
Codec ID/Hint : MP3
Duration : 45mn 38s
Bit rate mode : Constant
Bit rate : 192 Kbps
Channel(s) : 2 channels
Sampling rate : 48.0 KHz
Compression mode : Lossy
Stream size : 62.7 MiB (11%)
Alignment : Aligned on interleaves
Interleave, duration : 40 ms (1.00 video frame)
Interleave, preload duratio : 504 ms
Writing library : LAME3.98.2

Скриншоты

-

Ссылка на предыдущие и альтернативные раздачи

[url=tracker.php?f=189,2366&nm=Transporter+The+Series]http:///*spam*//forum/tracker.php?f=189,2366&nm=Transporter+The+Series[/url]
-
Вне форума [Профиль] [ЛС]
Похожие темы
Форум Тема Автор Торрент Отв. Посл. сообщение
./templates/default/images/folder_sticky.gif Зарубежные фильмы с переводом Коллекционный сборник лучших фильмов с русским профессиональным переводом от студий "Русская ночь" и "О-Ла-ла" без цензуры/ 1996-2014 / DVDRip (Обновление 10.03.2016) - xxx с русским переводом Fanatik
0 | 1

0 | 2701

0

2016-03-19 18:45
Fanatik Последнее
Показать сообщения:    
Ответить на тему

Текущее время: Сегодня 19:17

Часовой пояс: GMT + 3



Вы не можете начинать темы
Вы не можете отвечать на сообщения
Вы не можете редактировать свои сообщения
Вы не можете удалять свои сообщения
Вы не можете голосовать в опросах
Вы не можете прикреплять файлы к сообщениям
Вы не можете скачивать файлы