Сегодня идет свободное скачивание без начисления Download

До последнего / Jusqu\'au dernier /Сезон: 1 / Серии: 1-6 из 6 (Франсуа Вель) [2014, Детектив, драма, HDTVRip 720p] VO (Project Web Mania) + Original + Subs (Fre)

Ответить на тему
 
Автор
Сообщение

Omen ®

Стаж: 6 лет 1 месяц

Сообщений: 184308

Торрент-статистика

Пост 13-Июн-2016 18:00

[Цитировать]

До последнего | Jusqu'au dernier-- Год выпуска: 2014 (1 сезон)
Страна: Франция
Жанр: Детектив, драма
Продолжительность: ~ 00:52:00
Перевод: Любительский одноголосый закадровый (Project Web Mania)
Субтитры: Французские--Режиссёр: Франсуа Вель / François Velle--В ролях: Valérie Karsenti (Карина Латур), Brigitte Fossey (Элен), Flore Bonaventura (Сибила Латур), Michaël Abiteboul (Лейтенант Леклер), Lionnel Astier (Капитан Манье), Marie-Christine Barrault (Надежда Тиссон), Jean-Claude Bouillon (Шарль Тиссон), David Baïot (Готье), Stéphane Freiss (Марк Кроуфорд), Laurence Cormerais (Одри Данизе), Serge Dupire (Рошетт), Paul Velle (Фабьен Коскас), Jacques Hansen (Адриен), Martial Bezot (Маттео) и др.--Описание: Трем главным женщинам в жизни Фреда Латура (матери, жене и дочери) придется объединиться, чтобы выяснить причину его загадочной смерти прямо в день рождения, когда все собрались отпраздновать это событие, как и предстоящий многообещающий контракт, который вскоре Фред должен был подписать в Японии. Что это было: несчастный случай, самоубийство или убийство?--

Доп. информация

Перевод: К.Семенюк, И.Рыбкиной
--Качество: HDTVRip 720p
Формат: MKV
Видео кодек: H.264
Аудио кодек: AC3
Видео: MPEG-4 AVC, 1280x720 (16:9), 25.000 fps, ~ 3000 kbps, 0.131 bpp
Аудио 1: [Русский] AC3, 48 kHz, 2 ch, 192 kbps
Аудио 2: [Французский] AC3, 48 kHz, 2 ch, 192 kbps
Субтитры: Французские--

MediaInfo

Код:
General
Unique ID                   : 219075592359456186958037240441438214302 (0xA4D06CA19BB05BB19A760D0E3BAC189E)
Complete name               : I:\...\Jusqu.Au.Dernier.s01.720p.HDTV_MediaClub\Jusqu.Au.Dernier.s01e01.720p.HDTV.Rus.Fre_MediaClub.mkv
Format                      : Matroska
Format version              : Version 4 / Version 2
File size                   : 1.24 GiB
Duration                    : 52mn 6s
Overall bit rate mode       : Variable
Overall bit rate            : 3 399 Kbps
Movie name                  : ReJIiZ MediaClub
Encoded date                : UTC 2016-04-11 16:43:22
Writing application         : mkvmerge v7.5.0 ('Glass Culture') 64bit built on Jan  4 2015 16:48:44
Writing library             : libebml v1.3.1 + libmatroska v1.4.2
Video
ID                          : 1
Format                      : AVC
Format/Info                 : Advanced Video Codec
Format profile              : High@L4.1
Format settings, CABAC      : Yes
Format settings, ReFrames   : 5 frames
Codec ID                    : V_MPEG4/ISO/AVC
Duration                    : 52mn 6s
Bit rate mode               : Variable
Bit rate                    : 3 013 Kbps
Maximum bit rate            : 40.0 Mbps
Width                       : 1 280 pixels
Height                      : 720 pixels
Display aspect ratio        : 16:9
Original display aspect rat : 2.40:1
Frame rate mode             : Constant
Frame rate                  : 25.000 fps
Color space                 : YUV
Chroma subsampling          : 4:2:0
Bit depth                   : 8 bits
Scan type                   : Progressive
Bits/(Pixel*Frame)          : 0.131
Stream size                 : 1.10 GiB (89%)
Writing library             : x264 core 135 r2345 f0c1c53
Encoding settings           : cabac=1 / ref=5 / deblock=1:0:0 / analyse=0x3:0x133 / me=umh / subme=9 / psy=1 / psy_rd=1.00:0.00 / mixed_ref=1 / me_range=16 / chroma_me=1 / trellis=2 / 8x8dct=1 / cqm=0 / deadzone=21,11 / fast_pskip=1 / chroma_qp_offset=-2 / threads=12 / lookahead_threads=1 / sliced_threads=0 / nr=0 / decimate=1 / interlaced=0 / bluray_compat=0 / constrained_intra=0 / bframes=3 / b_pyramid=2 / b_adapt=2 / b_bias=0 / direct=3 / weightb=1 / open_gop=0 / weightp=2 / keyint=250 / keyint_min=25 / scenecut=40 / intra_refresh=0 / rc_lookahead=60 / rc=crf / mbtree=1 / crf=19.0 / qcomp=0.60 / qpmin=0 / qpmax=69 / qpstep=4 / ip_ratio=1.40 / aq=1:1.0
Default                     : Yes
Forced                      : No
Audio #1
ID                          : 2
Format                      : AC-3
Format/Info                 : Audio Coding 3
Mode extension              : CM (complete main)
Format settings, Endianness : Big
Codec ID                    : A_AC3
Duration                    : 52mn 6s
Bit rate mode               : Constant
Bit rate                    : 192 Kbps
Channel(s)                  : 2 channels
Channel positions           : Front: L R
Sampling rate               : 48.0 KHz
Frame rate                  : 31.250 fps (1536 spf)
Compression mode            : Lossy
Stream size                 : 71.6 MiB (6%)
Title                       : Project Web Mania
Language                    : Russian
Default                     : Yes
Forced                      : No
Audio #2
ID                          : 3
Format                      : AC-3
Format/Info                 : Audio Coding 3
Mode extension              : CM (complete main)
Format settings, Endianness : Big
Codec ID                    : A_AC3
Duration                    : 52mn 6s
Bit rate mode               : Constant
Bit rate                    : 192 Kbps
Channel(s)                  : 2 channels
Channel positions           : Front: L R
Sampling rate               : 48.0 KHz
Frame rate                  : 31.250 fps (1536 spf)
Compression mode            : Lossy
Stream size                 : 71.6 MiB (6%)
Language                    : French
Default                     : No
Forced                      : No
Text
ID                          : 4
Format                      : UTF-8
Codec ID                    : S_TEXT/UTF8
Codec ID/Info               : UTF-8 Plain Text
Duration                    : 51mn 23s
Bit rate                    : 61 bps
Count of elements           : 639
Stream size                 : 23.2 KiB (0%)
Language                    : French
Default                     : No
Forced                      : No
[/spoiler]
-- --
Вне форума [Профиль] [ЛС]
Показать сообщения:    
Ответить на тему

Текущее время: Сегодня 23:46

Часовой пояс: GMT + 3



Вы не можете начинать темы
Вы не можете отвечать на сообщения
Вы не можете редактировать свои сообщения
Вы не можете удалять свои сообщения
Вы не можете голосовать в опросах
Вы не можете прикреплять файлы к сообщениям
Вы не можете скачивать файлы