Сегодня идет свободное скачивание без начисления Download

Комиссар Рекс / Kommissar Rex / Сезон: 1 / Серии: 1-14 из 14 (Пит Эриель, Оливер Хиршбигель, Бодо Фюрнайзен) [1994, Боевик, Криминал, Детектив, HDTVRip 720p] MVO (Студия НОТА по заказу ВГТРК) + Original

Ответить на тему
 
Автор
Сообщение

Omen ®

Стаж: 5 лет 11 месяцев

Сообщений: 184329

Торрент-статистика

Пост 12-Июн-2016 15:33

[Цитировать]

Комиссар Рекс / Kommissar Rex
Год выпуска: 1994-1995
Страна: Австрия/Германия
Жанр: Боевик/Криминал/Детектив
Продолжительность: 00:45:00
Перевод: Профессиональный (многоголосый закадровый) Студия НОТА по заказу ВГТРК
Режиссёр: Пит Эриель, Оливер Хиршбигель, Бодо Фюрнайзен, Ганс Вернер, Вольфганг Дикманн
В ролях: Тобиас Моретти, Карл Маркович, Вольф Бахофнер, Герхард Цеманн, Фриц Мюллер
Описание: Замечательный полицейский пес Рекс заставляет трепетать преступное сообщество Вены. Он умен, красив, хитер, обожает воровать булочки с колбасой и предан своему хозяину - легендарному комиссару полиции, таланливому сыщику, и просто покорителю женских сердец Рихарду Мозеру.
Над релизом работали:
fert_n Звук к 1-14 серии
Fred198 Видео к 1-14 серия, синхронизация, оформление релиза, раздача.
Nikki Lonely Timelord Работа над постером.
Exner Звук оригинальный к 8 и 12 серии с Комиссар Рекс 1 сезон DVDRemux
сэмпл
Качество: HDTVRip 720p
Формат: MKV
Видео: AVC Main@L4.1, 1280x720, 16:9, 25 fps, 2 776 kbps avg, 0.104 bit/pixel
Аудио: AC-3, 48 kHz, 2 ch, 192.00 kbps av [Russian]
Аудио: AC-3, 48 kHz, 2 ch, 192.00 kbps av [German] SRF1
Аудио: AC-3, 48 kHz, 2 ch, 224.00 kbps av [German] DVD 8 и 12 серия
Субтитры: Отсутствуют

Список серий

  • Конечная остановка Вена/Endstation Wien
  • Безупречное убийство/Ein perfekter Mord
  • Бегство в смерть/Flucht in den Tod
  • Убийства пожилых дам/Der Tod der alten Damen
  • Танец на вулкане/Tanz auf dem Vulkan
  • Убийство в Шонбрунне/Die Tote von Schönbrunn
  • Диагноз: убийство/Diagnose Mord
  • Тихий дом/Ein feines Haus
  • Амок/Amok
  • Золотая медаль/Der erste Preis
  • Мишки-Убийцы/Tödliche Teddys
  • Принеси мне череп Бетховена/Bring mir den Kopf von Beethoven
  • Под улицами Вены/Unter den Straßen von Wien
  • Выстрелы в Рекса/Schüsse auf Rex

MediaInfo

General
Unique ID : 205200189260198391383029300174735918535 (0x9A601E70D2381DBDAB47BB9065F9C5C7)
Complete name : L:\Kommissar.Rex.Staffel.1\Kommissar.Rex.S01E01.Rus.Ger.mkv
Format : Matroska
Format version : Version 4 / Version 2
File size : 1.66 GiB
Duration : 1h 25mn
Overall bit rate : 2 776 Kbps
Encoded date : UTC 2015-10-30 20:08:30
Writing application : mkvmerge v6.9.1 ('Blue Panther') 32bit built on Apr 18 2014 18:15:44
Writing library : libebml v1.3.0 + libmatroska v1.4.1
Video
ID : 1
Format : AVC
Format/Info : Advanced Video Codec
Format profile : Main@L4.1
Format settings, CABAC : Yes
Format settings, ReFrames : 4 frames
Codec ID : V_MPEG4/ISO/AVC
Duration : 1h 25mn
Bit rate : 2 400 Kbps
Width : 1 280 pixels
Height : 720 pixels
Display aspect ratio : 16:9
Frame rate mode : Constant
Frame rate : 25.000 fps
Color space : YUV
Chroma subsampling : 4:2:0
Bit depth : 8 bits
Scan type : Progressive
Bits/(Pixel*Frame) : 0.104
Stream size : 1.40 GiB (84%)
Writing library : x264 core 142 r2431 ac76440
Encoding settings : cabac=1 / ref=3 / deblock=1:0:0 / analyse=0x1:0x111 / me=hex / subme=7 / psy=1 / psy_rd=1.00:0.00 / mixed_ref=1 / me_range=16 / chroma_me=1 / trellis=1 / 8x8dct=0 / cqm=0 / deadzone=21,11 / fast_pskip=1 / chroma_qp_offset=-2 / threads=48 / lookahead_threads=5 / sliced_threads=0 / nr=0 / decimate=1 / interlaced=0 / bluray_compat=0 / constrained_intra=0 / bframes=3 / b_pyramid=2 / b_adapt=1 / b_bias=0 / direct=1 / weightb=1 / open_gop=0 / weightp=2 / keyint=75 / keyint_min=38 / scenecut=0 / intra_refresh=0 / rc_lookahead=40 / rc=abr / mbtree=1 / bitrate=2400 / ratetol=1.0 / qcomp=0.60 / qpmin=0 / qpmax=69 / qpstep=4 / ip_ratio=1.40 / aq=1:1.00
Default : Yes
Forced : No
Audio #1
ID : 2
Format : AC-3
Format/Info : Audio Coding 3
Mode extension : CM (complete main)
Format settings, Endianness : Big
Codec ID : A_AC3
Duration : 1h 25mn
Bit rate mode : Constant
Bit rate : 192 Kbps
Channel count : 2 channels
Channel positions : Front: L R
Sampling rate : 48.0 KHz
Bit depth : 16 bits
Compression mode : Lossy
Stream size : 118 MiB (7%)
Title : Профессиональный (многоголосный закадровый) студия НОТА по заказу ВГТРК
Language : Russian
Default : Yes
Forced : No
Audio #2
ID : 3
Format : AC-3
Format/Info : Audio Coding 3
Mode extension : CM (complete main)
Format settings, Endianness : Big
Codec ID : A_AC3
Duration : 1h 25mn
Bit rate mode : Constant
Bit rate : 192 Kbps
Channel count : 2 channels
Channel positions : Front: L R
Sampling rate : 48.0 KHz
Bit depth : 16 bits
Compression mode : Lossy
Stream size : 118 MiB (7%)
Title : Оригинал
Language : German
Default : No
Forced : No

Скриншоты





Сравнение

Версия 4:3

Версия 16:9
Вне форума [Профиль] [ЛС]
Показать сообщения:    
Ответить на тему

Текущее время: Сегодня 12:47

Часовой пояс: GMT + 3



Вы не можете начинать темы
Вы не можете отвечать на сообщения
Вы не можете редактировать свои сообщения
Вы не можете удалять свои сообщения
Вы не можете голосовать в опросах
Вы не можете прикреплять файлы к сообщениям
Вы не можете скачивать файлы