Сегодня идет свободное скачивание без начисления Download

Накорми зверя / Feed the Beast / Сезон 1 / Серии 1-2 (10) (Дэниэл Эттиэс) [2016, драма, WEB-DLRip] MVO (AlexFilm)

Ответить на тему
 
Автор
Сообщение

Omen ®

Стаж: 6 лет 1 месяц

Сообщений: 184308

Торрент-статистика

Пост 12-Июн-2016 12:00

[Цитировать]

--Накорми зверя / Feed the Beast
1 сезон, 1-2 серии
-- Год выпуска: 2016
Страна: США
Жанр: драма
Продолжительность: ~45 мин
Озвучание: профессиональное многоголосое закадровое (AlexFilm)-Режиссеры: Дэниэл Эттиэс, Стив Шилл, Джон С. Бейрд, Дэнни Гордон
В ролях: Дэвид Швиммер, Ивэн Леоне, Демостенс Крисан, Вики Уэйрхайм, Дэвид Патрик Келли, Триция Паолуччио.-Описание: Это история о двух закадычных друзьях, которые решают осуществить свою давнюю мечту — открыть собственный ресторан. Один из главных героев — великолепный шеф-повар, у которого, правда, большие проблемы с мафией и законом. Второй — первоклассный сомелье, а ещё вдовец, в одиночку воспитывающий сына-подростка.-Релиз:
Перевод: Константин Кривоногов
Монтаж и сведение звука: Михаил Суслов, Михаил Шорыгин
Роли озвучивали:
  • Таисия Тришина
  • Сергей Пономарёв
  • Михаил Суслов
  • Владимир Курдов
  • Роман Сопко-Сэмпл: http://sendfile.su/1242003- -Качество: WEB-DLRip
    Формат: AVI
    Видео: 720x400 (1.80:1), 23.976 fps, XviD ~1400 kbps avg, 0.20 bit/pixel
    Аудио Rus: 48 kHz, MPEG Layer 3, 2 ch, ~128.00 kbps
    Аудио Eng: 48 kHz, MPEG Layer 3, 2 ch, ~128.00 kbps
    Субтитры: нет-

Скриншоты

MediaInfo

Формат : AVI
Формат/Информация : Audio Video Interleave
Размер файла : 550 Мбайт
Продолжительность : 45 м.
Общий поток : 1673 Кбит/сек
Название фильма : Feed the Beast 1x01 @ AlexFilm
Программа кодирования : VirtualDubMod 1.5.10.2 (build 2540/release)
Библиотека кодирования : VirtualDubMod build 2540/release
Видео
Идентификатор : 0
Формат : MPEG-4 Visual
Профиль формата : Advanced Simple@L5
Параметр BVOP формата : 2
Параметр QPel формата : Нет
Параметр GMC формата : Без точки перехода
Параметр матрицы формата : Default (MPEG)
Идентификатор кодека : DX50
Идентификатор кодека/Подсказка : DivX 5
Продолжительность : 45 м.
Битрейт : 1403 Кбит/сек
Ширина : 720 пикселей
Высота : 400 пикселей
Соотношение сторон : 16:9
Частота кадров : 23,976 кадра/сек
Цветовое пространство : YUV
Субдискретизация насыщенности : 4:2:0
Битовая глубина : 8 бит
Тип развёртки : Прогрессивная
Метод сжатия : С потерями
Бит/(Пиксели*Кадры) : 0.203
Размер потока : 461 Мбайт (84%)
Библиотека кодирования : XviD 73
Аудио #1
Идентификатор : 1
Формат : MPEG Audio
Версия формата : Version 1
Профиль формата : Layer 3
Режим : Joint stereo
Расширение режима : MS Stereo
Идентификатор кодека : 55
Идентификатор кодека/Подсказка : MP3
Продолжительность : 45 м.
Вид битрейта : Постоянный
Битрейт : 128 Кбит/сек
Каналы : 2 канала
Частота : 48,0 КГц
Метод сжатия : С потерями
Размер потока : 42,1 Мбайт (8%)
Выравнивание : Соединение по промежуткам
Продолжительность промежутка : 42 мс. (1,00 видеокадр)
Время предзагрузки промежутка : 504 мс.
Заголовок : Russian (AlexFilm)
Библиотека кодирования : LAME3.99r
Настройки программы : -m j -V 4 -q 3 -lowpass 18 -b 128
Аудио #2
Идентификатор : 2
Формат : MPEG Audio
Версия формата : Version 1
Профиль формата : Layer 3
Режим : Joint stereo
Расширение режима : MS Stereo
Идентификатор кодека : 55
Идентификатор кодека/Подсказка : MP3
Продолжительность : 45 м.
Вид битрейта : Постоянный
Битрейт : 128 Кбит/сек
Каналы : 2 канала
Частота : 48,0 КГц
Метод сжатия : С потерями
Размер потока : 42,1 Мбайт (8%)
Выравнивание : Соединение по промежуткам
Продолжительность промежутка : 42 мс. (1,00 видеокадр)
Время предзагрузки промежутка : 504 мс.
Заголовок : English
Библиотека кодирования : LAME3.90.3

Внимание! Раздача ведётся путём добавления новых серий

Внимание! Раздача ведётся путём добавления новых серий; при каждом добавлении создаётся новый торрент. Чтобы начать докачку новой серии, пользователям необходимо сделать следующее:
(1) остановить скачивание,
(2) удалить старый торрент у себя из клиента (старые серии удалять не надо),
(3) скачать новый торрент и запустить его у себя в клиенте вместо старого, при этом указать клиенту путь в старую папку куда и должно происходить скачивание новых серий.
Ваш клиент при этом должен произвести хеширование (проверку) старой папки (если не производит сам - помогите ему сделать это), и будет докачивать только те серии которых у вас ещё нет. Старые серии при этом не удаляются, а продолжают раздаваться!
Eсли вы уже удалили старые серии, то предотвратить повторную закачку старых серий можно, отжав галочку в соответствующих местах при запуске нового торрента. По возможности, желательно не удалять старые серии как можно дольше чтобы релизёр не столько продолжал раздавать старые серии, а смог сконцентрироваться на новых.
Вне форума [Профиль] [ЛС]
Показать сообщения:    
Ответить на тему

Текущее время: Сегодня 17:58

Часовой пояс: GMT + 3



Вы не можете начинать темы
Вы не можете отвечать на сообщения
Вы не можете редактировать свои сообщения
Вы не можете удалять свои сообщения
Вы не можете голосовать в опросах
Вы не можете прикреплять файлы к сообщениям
Вы не можете скачивать файлы