Сегодня идет свободное скачивание без начисления Download

Незабытый / Unforgotten / Сезон: 1 / Серии: 1-6 из 6 (Энди Уилсон) [2015, Криминал, драма, WEB-DL 720p] DVO (kiitos) + Original + Subs (Rus, Eng)

Ответить на тему
 
Автор
Сообщение

Omen ®

Стаж: 5 лет 11 месяцев

Сообщений: 184329

Торрент-статистика

Пост 12-Июн-2016 09:00

[Цитировать]

Незабытый | Unforgotten-- Год выпуска: 2015 (1 сезон)
Страна: Великобритания
Жанр: Криминал, драма
Продолжительность: ~ 01:00:00
Перевод: Любительский двухголосый закадровый (kiitos.tv)
Субтитры: Русские (Катя Щербакова), английские--Режиссёр: Энди Уилсон / Andy Wilson--В ролях: Nicola Walker (Детектив-инспектор Кейси Стюарт), Sanjeev Bhaskar (Детектив-сержант Санил «Санни» Хан), Trevor Eve (Сэр Филипп Кросс), Bernard Hill (Отец Роберт Гривз), Gemma Jones (Клер Слейтер), Tom Courtenay (Эрик Слейтер), Brian Bovell (Рей Уилтон), Ruth Sheen (Лиззи Уилтон), Ade Oyefeso (Кёртис), Pippa Nixon (Детектив-констебль Карен Уиллетт), Jordan Long (Детектив-констебль Мюррей Болтинг), Lewis Reeves (Детектив-констебль Джейк Коллиер), Dominic Power (Лес Слейтер), Harley Sylvester (Джимми Салливан), Frances Tomelty (Морин Салливан), Josh Cross (Джош Кросс), Zoe Telford (Белла Кросс) и др.--Описание: Когда строители, в поисках электрокабелей, вскрыли фундамент старого здания, то обнаружили там захороненные кости человека. Эксперты выясняют, что это останки убитого 39 лет назад юноши, чье исчезновение так и не было раскрыто в то время. Полиция не собирается оставлять безнаказанным убийство, и за дело берутся двое напарников, «Санни» Хан и Кейси Стюарт, которые возобновляют старое дело. Теперь они должны заново изучить все улики и встретиться со свидетелями, далеко не все из которых дожили до этого дня. Всего лишь четыре главных подозреваемых в деле, и у каждого свое алиби. Но теперь речь идет не просто об исчезновении, а о конкретном убийстве. Кейси и «Санни», вооруженные личным кодексом чести и современными методами экспертизы и дознания, смогут докопаться до правды...--

Доп. информация

Источником русской аудиодорожки является релиз группы:
Перевод: Инна Елисеева
Озвучивание: Анастасия Снегирева, kiitos
Перевод субтитров: Катя Щербакова
--Качество: WEB-DL 720p
Видео кодек: H.264
Аудио кодек: AC3
Видео: MPEG-4 AVC, 960х718@1280х718, 960х720@1280х720 (16:9), 25.000 fps, ~ 4000 kbps
Аудио 1: [Русский] AC3, 48 kHz, 2 ch, 192 kbps
Аудио 2: [Английский] AC3, 48 kHz, 2 ch, 192 kbps
Субтитры: Русские, английские (SRT)
--

MediaInfo

Код:
General
Unique ID                   : 245330054213006772149394985312155501524 (0xB890D98A4F6E6DFA8A11E92C8C3A83D4)
Complete name               : I:\...\Unforgotten.s01.720p.WEB-DL_MediaClub\Unforgotten.S01E02.720p.WEB-DL.Rus.Eng_MediaClub.mkv
Format                      : Matroska
Format version              : Version 4 / Version 2
File size                   : 1.37 GiB
Duration                    : 45mn 26s
Overall bit rate            : 4 316 Kbps
Encoded date                : UTC 2016-06-04 14:16:29
Writing application         : mkvmerge v7.5.0 ('Glass Culture') 64bit built on Jan  4 2015 16:48:44
Writing library             : libebml v1.3.1 + libmatroska v1.4.2
Video
ID                          : 1
Format                      : AVC
Format/Info                 : Advanced Video Codec
Format profile              : Main@L3.1
Format settings, CABAC      : No
Format settings, ReFrames   : 2 frames
Codec ID                    : V_MPEG4/ISO/AVC
Duration                    : 45mn 26s
Bit rate                    : 3 929 Kbps
Width                       : 960 pixels
Height                      : 718 pixels
Display aspect ratio        : 16:9
Frame rate mode             : Constant
Frame rate                  : 25.000 fps
Color space                 : YUV
Chroma subsampling          : 4:2:0
Bit depth                   : 8 bits
Scan type                   : Progressive
Bits/(Pixel*Frame)          : 0.228
Stream size                 : 1.25 GiB (91%)
Default                     : Yes
Forced                      : No
Color range                 : Limited
Color primaries             : BT.709
Transfer characteristics    : BT.709
Matrix coefficients         : BT.709
Audio #1
ID                          : 2
Format                      : AC-3
Format/Info                 : Audio Coding 3
Mode extension              : CM (complete main)
Format settings, Endianness : Big
Codec ID                    : A_AC3
Duration                    : 45mn 26s
Bit rate mode               : Constant
Bit rate                    : 192 Kbps
Channel(s)                  : 2 channels
Channel positions           : Front: L R
Sampling rate               : 48.0 KHz
Frame rate                  : 31.250 fps (1536 spf)
Compression mode            : Lossy
Stream size                 : 62.4 MiB (4%)
Title                       : kiitos.tv
Language                    : Russian
Default                     : Yes
Forced                      : No
Audio #2
ID                          : 3
Format                      : AC-3
Format/Info                 : Audio Coding 3
Mode extension              : CM (complete main)
Format settings, Endianness : Big
Codec ID                    : A_AC3
Duration                    : 45mn 26s
Bit rate mode               : Constant
Bit rate                    : 192 Kbps
Channel(s)                  : 2 channels
Channel positions           : Front: L R
Sampling rate               : 48.0 KHz
Frame rate                  : 31.250 fps (1536 spf)
Compression mode            : Lossy
Stream size                 : 62.4 MiB (4%)
Language                    : English
Default                     : No
Forced                      : No
Text #1
ID                          : 4
Format                      : UTF-8
Codec ID                    : S_TEXT/UTF8
Codec ID/Info               : UTF-8 Plain Text
Duration                    : 43mn 27s
Bit rate                    : 135 bps
Count of elements           : 592
Stream size                 : 43.2 KiB (0%)
Title                       : Катя Щербакова
Language                    : Russian
Default                     : No
Forced                      : No
Text #2
ID                          : 5
Format                      : UTF-8
Codec ID                    : S_TEXT/UTF8
Codec ID/Info               : UTF-8 Plain Text
Duration                    : 44mn 5s
Bit rate                    : 70 bps
Count of elements           : 599
Stream size                 : 22.9 KiB (0%)
Language                    : English
Default                     : No
Forced                      : No
[/spoiler]
-- --
Вне форума [Профиль] [ЛС]
Показать сообщения:    
Ответить на тему

Текущее время: Сегодня 07:11

Часовой пояс: GMT + 3



Вы не можете начинать темы
Вы не можете отвечать на сообщения
Вы не можете редактировать свои сообщения
Вы не можете удалять свои сообщения
Вы не можете голосовать в опросах
Вы не можете прикреплять файлы к сообщениям
Вы не можете скачивать файлы