Сегодня идет свободное скачивание без начисления Download

Код убийства / The Bletchley Circle / Сезон: 1 / Серии: 1-3 из 3 (Энди де Эммони / Andy DeEmmony) [2012, Триллер, BDRemux 1080p] MVO (SET Russia) + MVO (Agatha Studdio) + Original + Subs (Rus, Eng)

Ответить на тему
 
Автор
Сообщение

Omen ®

Стаж: 5 лет 6 месяцев

Сообщений: 186946

Торрент-статистика

Пост 12-Июн-2016 00:03

[Цитировать]

--Код убийства / The Bletchley Circle-- Год выпуска: 2012 (1 сезон)
Страна: Великобритания
Жанр: Триллер
Продолжительность: 3 x ~ 00:45:00
Перевод: Профессиональный (многоголосый, закадровый) SET Russia
Перевод: Профессиональный (многоголосый, закадровый) Agatha Studdio
Субтитры: Русские, английские
--Режиссёр: Энди де Эммони / Andy De Emmony
В ролях: Anna Maxwell Martin (Susan), Rachael Stirling (Millie), Julie Graham (Jean), Sophie Rundle (Lucy), Ed Birch (Harry), Mark Dexter ( Timothy) Michael Gould (Deputy Commissioner Wainwright) Elliot Kerley (Sam) Jocelyn Macnab (Claire) и др.
--Описание: В центре действия сериала – четыре женщины с необычными навыками, внесшие в свое время немалый вклад в то, чтобы положить конец Второй мировой войне.Сьюзен (Анна Мартин), Люси (Софи Рандл), Милли (Рэйчел Стирлинг) и Джин (Джули Грэхэм) прежде работали дешифровальщицами в отделе внешней разведки, в стенах Блетчли-парка, особняка, где располагалось главное шифровальное подразделение Великобритании. Они занимались расшифровкой тайных донесений стран гитлеровской коалиции. Теперь, в 1952 году, героини намерены вести обычную жизнь. Однако их навыки неожиданно становятся востребованы…-- [url=tracker.php?f=189,2366&nm=The+Bletchley+Circle] [/url]

Доп. информация

За дорожку SET 5.1 нижайшее мерси [url=profile.php?mode=viewprofile&u=4305293]miha2154[/url]
--

Список серий

--

01 - Код убийства: Часть 1 / Cracking a Killer's Code: Part 1

Во время Второй мировой войны четыре женщины с необычными навыками работали в качестве дешифровальщиц в Блетчли-Парк. В 1952 году, Сьюзен, нынче домохозяйка, слышит по радио о серийном убийце и связывается с заместителем начальника комиссара Уэйнрайтом, военном другом ее мужа Тимоти. По ее теории должна быть еще одна жертва в определенном месте. Однако, полиции не удалось найти тело и Сьюзен решает обратиться к бывшим коллегам, предложив им собраться под видом литературного клуба...

02 – Код убийства: Часть 2 / Cracking a Killer's Code: Part 2

Женщины предположили, что убийцей является железнодорожный служащий, знакомый с расписанием поездов и сузили список подозреваемых до трех человек. Они разрабатывают план, чтобы заманить убийцу в ловушку, используя Люси в качестве приманки, но попытка заканчивается неудачей. Более того, они обнаруживают, что их первоначальная теория неверна. Сьюзен сталкивается лицом к лицу с убийцей в закрытой психиатрической лечебнице…

03 – Код убийства: Часть 3 / Cracking a Killer's Code: Part 3

Сьюзен возвращается с полицией, но убийца уже исчез. Она находит дома полуразгаданный кроссворд, который приводит ее к дому Кавендиша, но обнаруживает его уже мертвым. Открытка на столе Кавендиша дает ключ. Сьюзен направляется в ловушку, расставленную для нее убийцей…
Качество: BDRemux 1080p
Формат: MKV
Видео кодек: H.264
Аудио кодек: AC3, AАC
Видео: MPEG-4 AVC, 1920x1080 (16:9), 29.940 fps, ~ 28.3 Mbps, 0.456 bpp
Аудио 1: [Русский] AC3, 48 kHz, 2 ch, 192 kbps (SET Russia)
Аудио 2: [Русский] AАC, 48 kHz, 6 ch, 192 kbps (SET Russia)
Аудио 3: [Русский] AC3, 48 kHz, 2 ch, 256 kbps (Agatha Studdio)
Аудио 4: [Английский] AC3, 48 kHz, 2 ch, 640 kbps
Субтитры: Русские, Английские
--

MediaInfo

Код:
General
Unique ID                   : 209631782404420560066363748072793412694 (0x9DB59CDA171F9B8A94FD1F59D45D9456)
Complete name               : I:\...\The Bletchley Circle S01 1080p.BDRemux.RusEng\the.bletchley.circle.s01e01.1080p.BDRemux.mkv
Format                      : Matroska
Format version              : Version 4 / Version 2
File size                   : 9.52 GiB
Duration                    : 44mn 55s
Overall bit rate            : 30.3 Mbps
Encoded date                : UTC 2016-06-11 17:20:11
Writing application         : mkvmerge v7.5.0 ('Glass Culture') 64bit built on Jan  4 2015 16:48:44
Writing library             : libebml v1.3.1 + libmatroska v1.4.2
Video
ID                          : 1
Format                      : AVC
Format/Info                 : Advanced Video Codec
Format profile              : High@L4.1
Format settings, CABAC      : Yes
Format settings, ReFrames   : 3 frames
Codec ID                    : V_MPEG4/ISO/AVC
Duration                    : 44mn 55s
Bit rate mode               : Constant
Bit rate                    : 29.0 Mbps
Nominal bit rate            : 35.0 Mbps
Width                       : 1 920 pixels
Height                      : 1 080 pixels
Display aspect ratio        : 16:9
Frame rate mode             : Variable
Frame rate                  : 59.940 (60000/1001) fps
Original frame rate         : 29.970 (30000/1001) fps
Standard                    : NTSC
Color space                 : YUV
Chroma subsampling          : 4:2:0
Bit depth                   : 8 bits
Scan type                   : Interlaced
Scan type, store method     : Separated fields
Scan order                  : Top Field First
Bits/(Pixel*Frame)          : 0.234
Stream size                 : 9.11 GiB (96%)
Default                     : Yes
Forced                      : No
Color range                 : Limited
Color primaries             : BT.709
Transfer characteristics    : BT.709
Matrix coefficients         : BT.709
Audio #1
ID                          : 2
Format                      : AC-3
Format/Info                 : Audio Coding 3
Mode extension              : CM (complete main)
Format settings, Endianness : Big
Codec ID                    : A_AC3
Duration                    : 44mn 43s
Bit rate mode               : Constant
Bit rate                    : 192 Kbps
Channel(s)                  : 2 channels
Channel positions           : Front: L R
Sampling rate               : 48.0 KHz
Frame rate                  : 31.250 fps (1536 spf)
Compression mode            : Lossy
Stream size                 : 61.4 MiB (1%)
Title                       : SET
Language                    : Russian
Default                     : Yes
Forced                      : Yes
Audio #2
ID                          : 3
Format                      : AAC
Format/Info                 : Advanced Audio Codec
Format profile              : LC
Codec ID                    : A_AAC
Duration                    : 44mn 55s
Bit rate                    : 192 Kbps
Channel(s)                  : 6 channels
Channel positions           : Front: L C R, Side: L R, LFE
Sampling rate               : 48.0 KHz
Frame rate                  : 46.875 fps (1024 spf)
Compression mode            : Lossy
Stream size                 : 60.9 MiB (1%)
Title                       : DD 5.1 @ 192 kbps @ SET
Language                    : Russian
Default                     : No
Forced                      : No
Audio #3
ID                          : 4
Format                      : AC-3
Format/Info                 : Audio Coding 3
Mode extension              : CM (complete main)
Format settings, Endianness : Big
Codec ID                    : A_AC3
Duration                    : 44mn 55s
Bit rate mode               : Constant
Bit rate                    : 256 Kbps
Channel(s)                  : 2 channels
Channel positions           : Front: L R
Sampling rate               : 48.0 KHz
Frame rate                  : 31.250 fps (1536 spf)
Compression mode            : Lossy
Stream size                 : 82.3 MiB (1%)
Title                       : Agatha.Studdio
Language                    : Russian
Default                     : No
Forced                      : No
Audio #4
ID                          : 5
Format                      : AC-3
Format/Info                 : Audio Coding 3
Mode extension              : CM (complete main)
Format settings, Endianness : Big
Codec ID                    : A_AC3
Duration                    : 44mn 55s
Bit rate mode               : Constant
Bit rate                    : 640 Kbps
Channel(s)                  : 2 channels
Channel positions           : Front: L R
Sampling rate               : 48.0 KHz
Frame rate                  : 31.250 fps (1536 spf)
Compression mode            : Lossy
Stream size                 : 206 MiB (2%)
Language                    : English
Default                     : No
Forced                      : No
Text #1
ID                          : 6
Format                      : UTF-8
Codec ID                    : S_TEXT/UTF8
Codec ID/Info               : UTF-8 Plain Text
Duration                    : 44mn 0s
Bit rate                    : 116 bps
Count of elements           : 576
Stream size                 : 37.6 KiB (0%)
Language                    : Russian
Default                     : No
Forced                      : No
Text #2
ID                          : 7
Format                      : PGS
Muxing mode                 : zlib
Codec ID                    : S_HDMV/PGS
Codec ID/Info               : Picture based subtitle format used on BDs/HD-DVDs
Duration                    : 44mn 8s
Bit rate                    : 15.4 Kbps
Count of elements           : 835
Stream size                 : 4.87 MiB (0%)
Language                    : English
Default                     : No
Forced                      : No
[/spoiler]
--

Скриншоты


Добавлена русская дорожка 5.1 (SET Russia)
Вне форума [Профиль] [ЛС]
Показать сообщения:    
Ответить на тему

Текущее время: Сегодня 00:20

Часовой пояс: GMT + 3



Вы не можете начинать темы
Вы не можете отвечать на сообщения
Вы не можете редактировать свои сообщения
Вы не можете удалять свои сообщения
Вы не можете голосовать в опросах
Вы не можете прикреплять файлы к сообщениям
Вы не можете скачивать файлы