Сегодня идет свободное скачивание без начисления Download

Обзор с Форрестом МакНилом / Review with Forrest MacNeil / Сезон: 1 / Серии: 1-5 из 9 (Джеффри Блитц) [2014, Ситком, мокьюментари, HDTVRip] Original + Rus Subs (AlDiablo, kiberkirik) + Original

Ответить на тему
 
Автор
Сообщение

Omen ®

Стаж: 5 лет 11 месяцев

Сообщений: 184329

Торрент-статистика

Пост 11-Июн-2016 15:00

[Цитировать]

Обзор с Форрестом МакНилом / Review with Forrest MacNeil
Год выпуска: 2014
Страна: США
Жанр: Ситком, мокьюментари
Продолжительность: 21 минута
Перевод: Субтитры AlDiablo, kiberkirik
Режиссёр: Джеффри Блитц
В ролях: Энди Дейли, Меган Стивенсон, Джессика Сэнт Клер и др.
Описание: "Обзор" - это сериал о человеке, снимающем обзоры на различные аспекты жизни по заявкам своих зрителей. Он делает это с огромным энтузиазмом и не останавливается ни перед чем, тем самым старательно разрушая свою жизнь. Подсесть на кокаин, основать секту, развалить собственный счастливый брак просто потому, что кому-то стало интересно, каково это - для него это в порядке вещей.
Доп. информация: 1-3 серии перевел AlDiablo, перевод отредактировал kiberkirik
4 и дальнейшие серии перевел kiberkirik
Ссылка на предыдущие и альтернативные раздачи: [url=viewtopic.php?t=5157809]http:///*spam*//forum/viewtopic.php?t=5157809[/url]
Качество: HDTVRip
Формат: MP4
Видео: AVC, 720x404, 16:9, 23.976 fps, 1277 kbps
Аудио: AAC, 48 kHz, 2 ch, 128 kbps
Субтитры: софтсаб

Список серий

01. Stealing; Addiction; Prom
02. Sex Tape; Racist; Hunting
03. Pancakes; Divorce; Pancakes
04. Sleeping with a Celebrity; Being Batman
05. Best Friend; Space

MediaInfo

General
Complete name : E:\Сериалы\Review - Season 1 (2014)\Review.with.Forrest.MacNeil.S01E01.HDTV.x264-2HD.mp4
Format : MPEG-4
Format profile : Base Media
Codec ID : isom
File size : 214 MiB
Duration : 21mn 12s
Overall bit rate mode : Variable
Overall bit rate : 1 409 Kbps
Encoded date : UTC 2014-03-07 04:43:59
Tagged date : UTC 2014-03-07 04:43:59
Video
ID : 1
Format : AVC
Format/Info : Advanced Video Codec
Format profile : High@L3.1
Format settings, CABAC : Yes
Format settings, ReFrames : 5 frames
Codec ID : avc1
Codec ID/Info : Advanced Video Coding
Duration : 21mn 12s
Bit rate : 1 277 Kbps
Maximum bit rate : 5 530 Kbps
Width : 720 pixels
Height : 404 pixels
Display aspect ratio : 16:9
Frame rate mode : Constant
Frame rate : 23.976 fps
Color space : YUV
Chroma subsampling : 4:2:0
Bit depth : 8 bits
Scan type : Progressive
Bits/(Pixel*Frame) : 0.183
Stream size : 194 MiB (91%)
Writing library : x264 core 142 r2389 956c8d8
Encoding settings : cabac=1 / ref=5 / deblock=1:0:0 / analyse=0x3:0x113 / me=umh / subme=8 / psy=1 / psy_rd=1.00:0.00 / mixed_ref=1 / me_range=16 / chroma_me=1 / trellis=1 / 8x8dct=1 / cqm=0 / deadzone=21,11 / fast_pskip=1 / chroma_qp_offset=-2 / threads=6 / lookahead_threads=1 / sliced_threads=0 / nr=0 / decimate=1 / interlaced=0 / bluray_compat=0 / constrained_intra=0 / bframes=3 / b_pyramid=2 / b_adapt=2 / b_bias=0 / direct=3 / weightb=1 / open_gop=0 / weightp=2 / keyint=250 / keyint_min=23 / scenecut=40 / intra_refresh=0 / rc_lookahead=50 / rc=crf / mbtree=1 / crf=19.0 / qcomp=0.60 / qpmin=0 / qpmax=69 / qpstep=4 / ip_ratio=1.40 / aq=1:1.00
Encoded date : UTC 2014-03-07 04:43:58
Tagged date : UTC 2014-03-07 04:44:00
Matrix coefficients : BT.709
Audio
ID : 2
Format : AAC
Format/Info : Advanced Audio Codec
Format profile : LC
Codec ID : 40
Duration : 21mn 12s
Bit rate mode : Variable
Bit rate : 128 Kbps
Maximum bit rate : 145 Kbps
Channel(s) : 2 channels
Channel positions : Front: L R
Sampling rate : 48.0 KHz
Compression mode : Lossy
Stream size : 19.4 MiB (9%)
Encoded date : UTC 2014-03-07 04:44:00
Tagged date : UTC 2014-03-07 04:44:00

Скриншоты

Вне форума [Профиль] [ЛС]
Похожие темы
Форум Тема Автор Торрент Отв. Посл. сообщение
./templates/default/images/folder_dl.gif Техническая и научно-популярная литература О.Б. Антонов - Банковская деятельность в Казахстане. Обзор 2013 [2014, PDF] OlegAlm
1 | 0

0 | 1317

1

2014-01-21 11:59
OlegAlm Последнее
Показать сообщения:    
Ответить на тему

Текущее время: Сегодня 12:48

Часовой пояс: GMT + 3



Вы не можете начинать темы
Вы не можете отвечать на сообщения
Вы не можете редактировать свои сообщения
Вы не можете удалять свои сообщения
Вы не можете голосовать в опросах
Вы не можете прикреплять файлы к сообщениям
Вы не можете скачивать файлы