Сегодня идет свободное скачивание без начисления Download

Чудесные годы / The Wonder Years / Сезон: 1 / Серии: 1-6 из 6 (Майкл Диннер, Дэниэл Штерн, Питер Болдуин) [1988, Комедия, драма, семейный, DVDRemux] MVO (НТВ) + Original

Ответить на тему
 
Автор
Сообщение

Omen ®

Стаж: 5 лет 9 месяцев

Сообщений: 184433

Торрент-статистика

Пост 10-Июн-2016 21:03

[Цитировать]

Чудесные годы
The Wonder Years

Complete 1st Season

Год выпуска: 1988
Страна: США
Жанр: Комедия, драма, семейный
Продолжительность: ~23 минуты
Перевод: Профессиональный (многоголосый закадровый) НТВ
Режиссёр: Майкл Диннер (Michael Dinner), Дэниэл Штерн (Daniel Stern), Питер Болдуин (Peter Baldwin)
В ролях: Фред Сэвэдж (Fred Savage), Дэн Лориа (Dan Lauria), Элли Миллс (Alley Mills), Оливия Д`Або (Olivia d'Abo), Джейсон Херви (Jason Hervey), Дэника МакКеллар (Danica McKellar), Джош Савиано (Josh Saviano) и др.
Описание: В сериале разворачиваются события, происходившие с одной обычной американской семьей в 60-е годы. Они показаны через призму восприятия младшего мальчика, который постепенно взрослеет и постигает непростую науку взрослой жизни.
Детство Кевина Арнольда пришлось на яркие 60-е годы, когда в моду вошли хиппи, яркая одежда и необычная музыка. Теперь, будучи взрослым, Кевин с ностальгией вспоминает свои детские годы.
На дворе – расцвет 60-х и их особой атмосферы свободы. Кевин живет со своей семьей, где он – третий по счету ребенок. Кроме него у отца и матери есть еще двое старших – брат и сестра. Эти двое постоянно портят нервы родителям, в то время, как Кевин еще только проходит свое становление как личность. Каждый день, каждый эпизод его детства накладывают свой отпечаток на формирование характера постепенно взрослеющего мальчика. (c) vokrug.tv.
[url=tracker.php?f=189&nm=The+wonder+years]Предыдущие и альтернативные раздачи сериала[/url]
Сэмпл
Качество: DVDRemux
Формат: MKV
Видео: MPEG2, 720x480@720x540 (4:3), 5779 Kbps, 29,97 fps
Аудио: AC-3, 192 Kbps, 48000Hz, 2ch
Аудио 2: AC-3, 192 Kbps, 48000Hz, 2ch
Субтитры: Английские

Список серий

1. Пилотная серия (Pilot)
2. Свингеры (Swingers)
3. Работа моего отца (My Father's Office)
4. Ангел (Angel)
5. Телефонный звонок (The Phone Call)
6. Потанцуй со мной (Dance With Me)

MediaInfo

Общее
Уникальный идентификатор : 225459590554976232005503506273106471894 (0xA99DF00B22A40D68A26A04BF0CA52BD6)
Полное имя : The.Wonder.Years.s01e01.Rus.Eng.Subs.DVDRemux.mkv
Формат : Matroska
Версия формата : Version 2
Размер файла : 1,06 Гбайт
Продолжительность : 24 м.
Режим общего битрейта : Переменный
Общий поток : 6169 Кбит/сек
Дата кодирования : UTC 2016-06-09 16:13:13
Программа кодирования : mkvmerge v7.0.0 ('Where We Going') 32bit built on Jun 9 2014 15:08:34
Библиотека кодирования : libebml v1.3.0 + libmatroska v1.4.1
Видео
Идентификатор : 1
Формат : MPEG Video
Версия формата : Version 2
Профиль формата : Main@Main
Параметр BVOP формата : Да
Параметр матрицы формата : Выборочная
Параметр GOP формата : Variable
Структура изображения : Frame
Идентификатор кодека : V_MPEG2
Идентификатор кодека/Информация : MPEG 1 or 2 Video
Продолжительность : 24 м.
Вид битрейта : Переменный
Битрейт : 5779 Кбит/сек
Максимальный битрейт : 9800 Кбит/сек
Ширина : 720 пикселей
Высота : 480 пикселей
Соотношение сторон : 4:3
Режим частоты кадров : Переменный
Частота кадров : 29,970 кадров/сек
Стандарт вещания : NTSC
Цветовое пространство : YUV
Субдискретизация насыщенности : 4:2:0
Битовая глубина : 8 бит
Тип развёртки : Чересстрочная
Порядок развёртки : Верхнее поле первое
Метод сжатия : С потерями
Бит/(Пиксели*Кадры) : 0.558
Временной код первого кадра : 00:59:59;00
Оригинал временного кода : Group of pictures header
GOP, открыто/закрыто : Открыто
GOP, открыто/закрыто на первом кадре : Закрыто
Размер потока : 1020 Мбайт (94%)
Язык : English
Default : Да
Forced : Нет
Аудио #1
Идентификатор : 2
Формат : AC-3
Формат/Информация : Audio Coding 3
Расширение режима : CM (complete main)
Параметр Endianness формата : Big
Идентификатор кодека : A_AC3
Продолжительность : 24 м.
Вид битрейта : Постоянный
Битрейт : 192 Кбит/сек
Каналы : 2 канала
Расположение каналов : Front: L R
Частота : 48,0 КГц
Частота кадров : 31,250 кадров/сек (1536 spf)
Метод сжатия : С потерями
Размер потока : 33,8 Мбайт (3%)
Заголовок : HTB @ 2.0
Язык : Russian
Default : Да
Forced : Нет
Аудио #2
Идентификатор : 3
Формат : AC-3
Формат/Информация : Audio Coding 3
Расширение режима : CM (complete main)
Параметр Endianness формата : Big
Идентификатор кодека : A_AC3
Продолжительность : 24 м.
Вид битрейта : Постоянный
Битрейт : 192 Кбит/сек
Каналы : 2 канала
Расположение каналов : Front: L R
Частота : 48,0 КГц
Частота кадров : 31,250 кадров/сек (1536 spf)
Метод сжатия : С потерями
Размер потока : 33,9 Мбайт (3%)
Заголовок : Original @ 2.0
Язык : English
Default : Нет
Forced : Нет
Текст
Идентификатор : 4
Формат : UTF-8
Идентификатор кодека : S_TEXT/UTF8
Идентификатор кодека/Информация : UTF-8 Plain Text
Продолжительность : 24 м.
Битрейт : 119 бит/сек
Count of elements : 451
Размер потока : 21,1 Кбайт (0%)
Язык : English
Default : Нет
Forced : Нет
Меню
00:00:00.000 : en:Chapter 1
00:00:44.266 : en:Chapter 2
00:14:22.833 : en:Chapter 3
00:24:06.500 : en:Chapter 4

Скриншоты


Вне форума [Профиль] [ЛС]
Показать сообщения:    
Ответить на тему

Текущее время: Сегодня 10:06

Часовой пояс: GMT + 3



Вы не можете начинать темы
Вы не можете отвечать на сообщения
Вы не можете редактировать свои сообщения
Вы не можете удалять свои сообщения
Вы не можете голосовать в опросах
Вы не можете прикреплять файлы к сообщениям
Вы не можете скачивать файлы