Сегодня идет свободное скачивание без начисления Download

Восприятие / Нейродетектив / Perception / Сезон: 2 / Серии: 1-14 из 14 (Грег Биман, Кеннет Биллер, Крис Мисиано) [2013, Триллер, драма, криминал, детектив, WEB-DLRip] Dub (ТВ3) + Original

Ответить на тему
 
Автор
Сообщение

Omen ®

Стаж: 5 лет 9 месяцев

Сообщений: 184393

Торрент-статистика

Пост 10-Июн-2016 18:33

[Цитировать]

Восприятие / Нейродетектив / Perception
Год выпуска: 2013
Страна: США
Жанр: Триллер, драма, криминал, детектив
Продолжительность: 00:42:00
Перевод: Профессиональный (дублированный) ТВ3
Режиссёр: Грег Биман, Кеннет Биллер, Крис Мисиано
В ролях: Эрик МакКормак, Рэйчел Ли Кук, Келли Роуэн, Эрджей Смит, Джонатан Скарф, Кристофер Чен, Лиза Бейнс, Джимми Беннетт, Бриджет Риган, ЛеВар Бертон
Описание: Доктор Дэниел Пирс — талантливый, но эксцентричный нейрофизиолог, которого пригласили в ФБР для оказания помощи в расследовании наиболее сложных дел. Доктор Пирс работает в тесном сотрудничестве с Кейт Моретти, бывшей студенткой, которая и завербовала его для работы с Бюро. Также в команде есть Макс Левиски — ассистент доктора Пирса и Натали Винсент — его лучший друг.
Ссылка на предыдущие и альтернативные раздачи: [url=tracker.php?f%5B%5D=189&f%5B%5D=2366&nm=Perception]http:///*spam*//forum/tracker.php?f%5B%5D=189&...Perception[/url]
Сэмпл: http://multi-up.com/1105248
Качество: WEB-DLRip
Формат: AVI
Видео: MPEG4, DivX 5, 720x400 (16:9), 23.976 fps, 1 429 Kbps (0.207 bit/pixel)
Аудио: AC-3, 48.0 KHz, 2 ch, 192 Kbps, CBR - русский
Аудио 2: AC-3, 48.0 KHz, 2 ch, 192 Kbps, CBR - английский
Субтитры: нет

MediaInfo

Общее
Полное имя : M:\2x01 - Ch-Ch-Changes (Из-из-изменения).avi
Формат : AVI
Формат/Информация : Audio Video Interleave
Размер файла : 552 Мбайт
Продолжительность : 42 м.
Общий поток : 1828 Кбит/сек
Название фильма : Восприятие (Нейродетектив). Сезон 2 / Perception. Season 2 (2013)
Программа кодирования : VirtualDubMod 1.5.10.2 (build 2540/release)
Библиотека кодирования : VirtualDubMod build 2540/release
Авторское право : miha2154
Видео
Идентификатор : 0
Формат : MPEG-4 Visual
Профиль формата : Advanced Simple@L5
Параметр BVOP формата : 1
Параметр QPel формата : Нет
Параметр GMC формата : Без точки перехода
Параметр матрицы формата : Выборочная
Идентификатор кодека : DX50
Идентификатор кодека/Подсказка : DivX 5
Продолжительность : 42 м.
Битрейт : 1429 Кбит/сек
Ширина : 720 пикселей
Высота : 400 пикселей
Соотношение сторон : 16:9
Частота кадров : 23,976 (23976/1000) кадра/сек
Цветовое пространство : YUV
Субдискретизация насыщенности : 4:2:0
Битовая глубина : 8 бит
Тип развёртки : Прогрессивная
Метод сжатия : С потерями
Бит/(Пиксели*Кадры) : 0.207
Размер потока : 432 Мбайт (78%)
Библиотека кодирования : XviD 65
Аудио #1
Идентификатор : 1
Формат : AC-3
Формат/Информация : Audio Coding 3
Расширение режима : CM (complete main)
Параметр Endianness формата : Big
Идентификатор кодека : 2000
Продолжительность : 42 м.
Вид битрейта : Постоянный
Битрейт : 192 Кбит/сек
Каналы : 2 канала
Расположение каналов : Front: L R
Частота : 48,0 КГц
Частота кадров : 31,250 кадров/сек (1536 spf)
Метод сжатия : С потерями
Размер потока : 58,0 Мбайт (11%)
Выравнивание : Разделение по промежуткам
Продолжительность промежутка : 42 мс. (1,00 видеокадр)
Время предзагрузки промежутка : 500 мс.
Заголовок : Профессиональный (полное дублирование) ТВ3
Аудио #2
Идентификатор : 2
Формат : AC-3
Формат/Информация : Audio Coding 3
Расширение режима : CM (complete main)
Параметр Endianness формата : Big
Идентификатор кодека : 2000
Продолжительность : 42 м.
Вид битрейта : Постоянный
Битрейт : 192 Кбит/сек
Каналы : 2 канала
Расположение каналов : Front: L R
Частота : 48,0 КГц
Частота кадров : 31,250 кадров/сек (1536 spf)
Метод сжатия : С потерями
Размер потока : 58,0 Мбайт (11%)
Выравнивание : Разделение по промежуткам
Продолжительность промежутка : 42 мс. (1,00 видеокадр)
Время предзагрузки промежутка : 500 мс.
Заголовок : Английский

Скриншоты


Вне форума [Профиль] [ЛС]
Показать сообщения:    
Ответить на тему

Текущее время: Сегодня 23:31

Часовой пояс: GMT + 3



Вы не можете начинать темы
Вы не можете отвечать на сообщения
Вы не можете редактировать свои сообщения
Вы не можете удалять свои сообщения
Вы не можете голосовать в опросах
Вы не можете прикреплять файлы к сообщениям
Вы не можете скачивать файлы