Сегодня идет свободное скачивание без начисления Download

Дамы в колоде карт / Дамы / Les Dames / Jeu de Dame / Pack of Queens / Сезон: 1 / Серии: 6 из 8 (Шарлотта Брандстрём / Charlotte Brandstrom, Филипп Вено / Philippe Venault, Алексис Лекей / Alexis Lecaye) [2010 - 2012, Триллер, HDTVRip] MVO

Ответить на тему
 
Автор
Сообщение

Omen ®

Стаж: 5 лет 9 месяцев

Сообщений: 184393

Торрент-статистика

Пост 08-Июн-2016 15:00

[Цитировать]

Дамы в колоде карт / Les Dames
Фильм 6. Козырная дама
Год выпуска: 2011
Страна: Франция
Жанр: Триллер
Продолжительность: 01:40:30
Перевод: Профессиональный (многоголосый закадровый)
Режиссёр: Алексис Лекайе / Alexis Lecaye
В ролях: Тьерри Годар, Жан-Туссен Бернард, Мюриель Комбо, Валери Декобер-Корецки, Чарли Фуке, Николя Гоб, Софи-Шарлотт Юссон, Энн Лорье, Клара Понсо, Эрик Савен
Описание: По циклу детективных романов Алексис Лекей / Alexis Lecaye.
Алексис Лекей — блестящий мастер детективного жанра, лауреат престижных премий "Французский саспенс" и "Приключенческий роман года". Почти все его книги экранизированы, а знаменитый телесериал "Жюли Леско" пользуется популярностью уже 20 лет. Автор романов с названиями карточных дам. "Червонная дама" открывает цикл романов — и успешных телефильмов — о комиссаре Мартене, сыщике от бога и любимце женщин, не менее известном в сегодняшней Франции, чем комиссар Мегрэ. Все "Дамы" экранизированы для французского телевидения.
Доп. информация: За предоставленный рип благодарим Ledy_X
Сэмпл: https://yadi.sk/i/-m4Mh8UzsLre4
Качество: HDTVRip
Формат: AVI
Видео: 720x400 (1.80:1), 25 fps, XviD build 73 ~1747 kbps avg, 0.24 bit/pixel
Аудио: 48 kHz, AC3 Dolby Digital, 2/0 (L,R) ch, ~192 kbps
Субтитры: отсутствуют

Список серий

Все серии данного сериала
Les Dames:
1 — Червовая дама / Dame de coeur (2010)
2 — Пиковая дама / Dame de pique (2011)
3 — Бубновая дама / Dame de Carreau (2012)
4 — Крестовая дама / Dame de trèfle (2013)
5 — Кровавая дама / Dame de sang (2013)
6 — Козырная дама / Dame d’atout (2014)
7 — Пепельная дама / Dame de cendres (2014)
8 — Огненная дама / Dame de Feu (2015)
9 — Ледяная Дама / Dame de glace (2015)

MediaInfo

Козырная дама - Dame D' Atout 2013 [by Ledy_x].avi
Format : AVI
Format/Info : Audio Video Interleave
File size : 1.37 GiB
Duration : 1h 40mn
Overall bit rate : 1 950 Kbps
Movie name : Козырная дама - Dame D' Atout 2013
Director : by Ledy_X
Writing application : VirtualDubMod 1.5.10.3 | www.virtualdub-fr.org || (build 2550/release)
Copyright : Edich2
Comment : /*spam*/
Video
ID : 0
Format : MPEG-4 Visual
Format profile : Advanced Simple@L5
Format settings, BVOP : 2
Format settings, QPel : No
Format settings, GMC : No warppoints
Format settings, Matrix : Custom
Codec ID : XVID
Codec ID/Hint : XviD
Duration : 1h 40mn
Bit rate : 1 748 Kbps
Width : 720 pixels
Height : 400 pixels
Display aspect ratio : 16:9
Frame rate : 25.000 fps
Color space : YUV
Chroma subsampling : 4:2:0
Bit depth : 8 bits
Scan type : Progressive
Compression mode : Lossy
Bits/(Pixel*Frame) : 0.243
Stream size : 1.23 GiB (90%)
Writing library : XviD 73
Audio
ID : 1
Format : AC-3
Format/Info : Audio Coding 3
Mode extension : CM (complete main)
Format settings, Endianness : Big
Codec ID : 2000
Duration : 1h 40mn
Bit rate mode : Constant
Bit rate : 192 Kbps
Channel(s) : 2 channels
Channel positions : Front: L R
Sampling rate : 48.0 KHz
Frame rate : 31.250 fps (1536 spf)
Compression mode : Lossy
Stream size : 138 MiB (10%)
Alignment : Split accross interleaves
Interleave, duration : 40 ms (1.00 video frame)
Interleave, preload duratio : 500 ms

Скриншоты

Серии будут добавляться в раздачу.
Вне форума [Профиль] [ЛС]
Показать сообщения:    
Ответить на тему

Текущее время: Сегодня 23:30

Часовой пояс: GMT + 3



Вы не можете начинать темы
Вы не можете отвечать на сообщения
Вы не можете редактировать свои сообщения
Вы не можете удалять свои сообщения
Вы не можете голосовать в опросах
Вы не можете прикреплять файлы к сообщениям
Вы не можете скачивать файлы