Сегодня идет свободное скачивание без начисления Download

Красавица и чудовище / Beauty and the Beast / Сезон: 4 / Серии: 1 из 13 (Рик Бота, Стюарт Гиллард, Майрзи Алмас) [2016, триллер, драма, детектив, фантастика, HDTV 720p] DVO (Gears Media) + Original

Ответить на тему
 
Автор
Сообщение

Omen ®

Стаж: 5 лет 11 месяцев

Сообщений: 184329

Торрент-статистика

Пост 08-Июн-2016 03:00

[Цитировать]

Красавица и чудовище / Beauty and the Beast
Год выпуска: 2016
Страна: США
Жанр: триллер, драма, детектив, фантастика
Продолжительность: ~00:42:00
Перевод: Профессиональный (двухголосый закадровый) Gears Media
Режиссёр: Рик Бота, Стюарт Гиллард, Майрзи Алмас
В ролях: Кристин Кройк, Джей Райан, Остин Басис, Нина Лизандрелло, Макс Браун, Брайан Дж. Уайт, Николь Гэйл Андерсон, Сендхил Рамамурти, Роб Стюарт, Уильям Деври и др.
Описание: Она – талантливый детектив. Он – боец, прошедший Афганистан и жертва засекреченных экспериментов, превративших его в зверя в людском теле. Они встречаются, когда Винсент спасает подростка Кэтрин от головорезов, расстрелявших ее мать. Только герой появляется в образе зверя и жестоко расправляется с убийцами матери. Спустя годы Кэт становится полицейским. Их вторая встреча – случайна, но лишь на первый взгляд. Винсента с этой женщиной связывает таинственная миссия, которую человек-оборотень не осознает либо умело скрывает. Их судьбы заплетаются в один клубок из любви, опасностей, совместной работы и тайн. Это связь сверхъестественного зверя и женщины, пережившей трагедии, уже имела место в прошлом. Ребекка, предок героини, 100 лет назад любила и защищала человека-зверя. История повторяется и Кэтрин понимает, что ее жизнь с темными пятнами и пронизана ложью. Чтобы раскрыть глубокий заговор, Винсент вынужден чаще оборачиваться в животное. Однако, выпуская злобного, неконтролируемого зверя, он рискует жизнью Кэт и своей собственной. Войдет ли жизнь этих необычных персонажей в нормальное русло?
Сэмпл: http://multi-up.com/1104890
Качество: HDTV 720p
Формат: MKV
Видео: AVC, 1280×720 at 23.976 fps, ~4000 kbps avg
Аудио1: Russian, AC3, 48 kHz, 2 ch, 384 kbps
Аудио2: English, AC3, 48 kHz, 6 ch, 384 kbps
Субтитры: нет

MediaInfo

Format : Matroska
Format version : Version 4 / Version 2
File size : 1.17 GiB
Duration : 40mn 42s
Overall bit rate : 4 133 Kbps
Encoded date : UTC 2016-06-07 22:11:49
Writing application : mkvmerge v9.1.0 ('Little Earthquakes') 64bit
Writing library : libebml v1.3.3 + libmatroska v1.4.4
Video
ID : 1
Format : AVC
Format/Info : Advanced Video Codec
Format profile : High@L4.1
Format settings, CABAC : Yes
Format settings, ReFrames : 5 frames
Codec ID : V_MPEG4/ISO/AVC
Duration : 40mn 41s
Bit rate : 3 363 Kbps
Width : 1 280 pixels
Height : 720 pixels
Display aspect ratio : 16:9
Frame rate mode : Constant
Frame rate : 23.976 (24000/1001) fps
Color space : YUV
Chroma subsampling : 4:2:0
Bit depth : 8 bits
Scan type : Progressive
Bits/(Pixel*Frame) : 0.152
Stream size : 979 MiB (81%)
Writing library : x264 core 148 r2692 64f4e24
Encoding settings : cabac=1 / ref=5 / deblock=1:0:0 / analyse=0x3:0x113 / me=umh / subme=8 / psy=1 / psy_rd=1.00:0.00 / mixed_ref=1 / me_range=16 / chroma_me=1 / trellis=1 / 8x8dct=1 / cqm=0 / deadzone=21,11 / fast_pskip=1 / chroma_qp_offset=-2 / threads=22 / lookahead_threads=3 / sliced_threads=0 / nr=0 / decimate=1 / interlaced=0 / bluray_compat=0 / constrained_intra=0 / bframes=3 / b_pyramid=2 / b_adapt=2 / b_bias=0 / direct=3 / weightb=1 / open_gop=0 / weightp=2 / keyint=250 / keyint_min=23 / scenecut=40 / intra_refresh=0 / rc_lookahead=50 / rc=crf / mbtree=1 / crf=18.0 / qcomp=0.60 / qpmin=0 / qpmax=69 / qpstep=4 / ip_ratio=1.40 / aq=1:1.00
Default : Yes
Forced : No
Color range : Limited
Matrix coefficients : BT.709
Audio #1
ID : 2
Format : AC-3
Format/Info : Audio Coding 3
Mode extension : CM (complete main)
Format settings, Endianness : Big
Codec ID : A_AC3
Duration : 40mn 42s
Bit rate mode : Constant
Bit rate : 384 Kbps
Channel(s) : 2 channels
Channel positions : Front: L R
Sampling rate : 48.0 KHz
Frame rate : 31.250 fps (1536 spf)
Compression mode : Lossy
Stream size : 112 MiB (9%)
Title : Gears Media
Language : Russian
Default : Yes
Forced : Yes
Audio #2
ID : 3
Format : AC-3
Format/Info : Audio Coding 3
Mode extension : CM (complete main)
Format settings, Endianness : Big
Codec ID : A_AC3
Duration : 40mn 41s
Bit rate mode : Constant
Bit rate : 384 Kbps
Channel(s) : 6 channels
Channel positions : Front: L C R, Side: L R, LFE
Sampling rate : 48.0 KHz
Frame rate : 31.250 fps (1536 spf)
Compression mode : Lossy
Stream size : 112 MiB (9%)
Language : English
Default : No
Forced : No

Скриншоты

Внимание! Раздача ведётся путём добавления новых серий

Внимание! Раздача ведётся путём добавления новых серий; при каждом добавлении создаётся новый торрент. Чтобы начать докачку новой серии, пользователям необходимо сделать следующее:
(1) остановить скачивание,
(2) удалить старый торрент у себя из клиента (старые серии удалять не надо),
(3) скачать новый торрент и запустить его у себя в клиенте вместо старого, при этом указать клиенту путь в старую папку куда и должно происходить скачивание новых серий.
Ваш клиент при этом должен произвести хеширование (проверку) старой папки (если не производит сам - помогите ему сделать это), и будет докачивать только те серии которых у вас ещё нет. Старые серии при этом не удаляются, а продолжают раздаваться!
Eсли вы уже удалили старые серии, то предотвратить повторную закачку старых серий можно, отжав галочку в соответствующих местах при запуске нового торрента. По возможности, желательно не удалять старые серии как можно дольше чтобы релизёр не столько продолжал раздавать старые серии, а смог сконцентрироваться на новых.
Вне форума [Профиль] [ЛС]
Показать сообщения:    
Ответить на тему

Текущее время: Сегодня 01:09

Часовой пояс: GMT + 3



Вы не можете начинать темы
Вы не можете отвечать на сообщения
Вы не можете редактировать свои сообщения
Вы не можете удалять свои сообщения
Вы не можете голосовать в опросах
Вы не можете прикреплять файлы к сообщениям
Вы не можете скачивать файлы