Сегодня идет свободное скачивание без начисления Download

Американская история ужасов / American Horror Story / Сезон: 2 / Серии: 1-13 из 13 (Райан Мерфи) [2012, Ужасы, драма, детектив, WEB-DLRip] MVO (Amedia) + Original

Ответить на тему
 
Автор
Сообщение

Omen ®

Стаж: 5 лет 7 месяцев

Сообщений: 185427

Торрент-статистика

Пост 08-Июн-2016 00:00

[Цитировать]

Американская история ужасов | American Horror Story- Год выпуска: 2012
Страна: США
Жанр: Ужасы, драма, детектив
Продолжительность: 00:45:00
Перевод: Профессиональный (многоголосый закадровый) | Amedia--Режиссёр: Райан Мерфи
В ролях: Закари Куинто, Джозеф Файнс, Сара Полсон, Эван Питерс, Лили Рейб, Лиззи Брошерэ , Джеймс Кромуэлл, Джессика Ланг и др.-Описание: Действие второго сезона развернется в психбольнице для душевнобольных преступников. Добро пожаловать в Брайерклифф-Мэнор, печально известная психиатрическая больница, ставшая убежищем для серийного убийцы. Скрываясь в тени этого «святилища исцеления», выявляются страшные пороки, которые стирают границы между действительностью и безумием.--Релиз от
Рип: ЛП
Работа со звуком: xironfs, BS666
--Сэмпл: http://multi-up.com/1104870-Качество: WEB-DLRip
Формат: AVI
Видео: XVID, 720x400 (16:9), 23.976 fps, ~2000 kbps avg, 0.29 bit/pixel
Аудио Rus: AC3 Dolby Digital, 48.0 KHz, 2 channels, ~192 kbps
Аудио Eng: AC3 Dolby Digital, 48.0 KHz, 2 channels, ~192 kbps
Субтитры: отсутствуют

MediaInfo

General
Complete name : E:\Американская история ужасов (Сезон 2) Amedia\American.Horror.Story.s02e01.rus.eng.CasStudio.avi
Format : AVI
Format/Info : Audio Video Interleave
File size : 792 MiB
Duration : 46mn 9s
Overall bit rate : 2 398 Kbps
Writing application : VirtualDubModRus 1.5.10.2 (build 2542/release)
Writing library : VirtualDubMod build 2542/release
Video
ID : 0
Format : MPEG-4 Visual
Format profile : Advanced Simple@L5
Format settings, BVOP : 1
Format settings, QPel : No
Format settings, GMC : No warppoints
Format settings, Matrix : Default (MPEG)
Codec ID : XVID
Codec ID/Hint : XviD
Duration : 46mn 9s
Bit rate : 2 000 Kbps
Width : 720 pixels
Height : 400 pixels
Display aspect ratio : 16:9
Frame rate : 23.976 (23976/1000) fps
Color space : YUV
Chroma subsampling : 4:2:0
Bit depth : 8 bits
Scan type : Progressive
Compression mode : Lossy
Bits/(Pixel*Frame) : 0.290
Stream size : 660 MiB (83%)
Writing library : XviD 65
Audio #1
ID : 1
Format : AC-3
Format/Info : Audio Coding 3
Mode extension : CM (complete main)
Format settings, Endianness : Big
Codec ID : 2000
Duration : 46mn 9s
Bit rate mode : Constant
Bit rate : 192 Kbps
Channel(s) : 2 channels
Channel positions : Front: L R
Sampling rate : 48.0 KHz
Frame rate : 31.250 fps (1536 spf)
Compression mode : Lossy
Stream size : 63.4 MiB (8%)
Alignment : Split accross interleaves
Interleave, duration : 42 ms (1.00 video frame)
Interleave, preload duratio : 500 ms
Audio #2
ID : 2
Format : AC-3
Format/Info : Audio Coding 3
Mode extension : CM (complete main)
Format settings, Endianness : Big
Codec ID : 2000
Duration : 46mn 9s
Bit rate mode : Constant
Bit rate : 192 Kbps
Channel(s) : 2 channels
Channel positions : Front: L R
Sampling rate : 48.0 KHz
Frame rate : 31.250 fps (1536 spf)
Compression mode : Lossy
Stream size : 63.4 MiB (8%)
Alignment : Split accross interleaves
Interleave, duration : 42 ms (1.00 video frame)
Interleave, preload duratio : 500 ms

Скриншоты

--
Вне форума [Профиль] [ЛС]
Похожие темы
Форум Тема Автор Торрент Отв. Посл. сообщение
./templates/default/images/folder_dl.gif Разное Джон Перкинс | Тайная история американской империи. Экономические убийцы и правда о глобальной коррупции (2008) [PDF] sashau
1 | 0

0 | 639

4

2014-07-31 17:19
sashau Последнее
./templates/default/images/folder_dl.gif Историческая литература Бушков Александр Александрович - Русская Америка: слава и позор [Винокурова Надежда Владимировна, 2013 г., 96 kbps, MP3] Omen
1 | 0

0 | 283

2

2015-11-22 12:05
Omen Последнее
./templates/default/images/folder_dl.gif Зарубежные сериалы Американская история ужасов / American Horror Story / Сезон: 3 / Серии: 1-13 из 13 (Альфонсо Гомез-Рейон, Майкл Аппендаль, Брэдли Букер) [2013, Ужасы, драма, детектив, WEB-DLRip] MVO (Amedia) + Original Omen
1 | 0

0 | 1286

6

2016-06-09 18:03
Omen Последнее
Показать сообщения:    
Ответить на тему

Текущее время: Сегодня 14:39

Часовой пояс: GMT + 3



Вы не можете начинать темы
Вы не можете отвечать на сообщения
Вы не можете редактировать свои сообщения
Вы не можете удалять свои сообщения
Вы не можете голосовать в опросах
Вы не можете прикреплять файлы к сообщениям
Вы не можете скачивать файлы