Сегодня идет свободное скачивание без начисления Download

Американская история ужасов / American Horror Story / Сезон: 1 / Серии: 1-12 из 12 (Альфонсо Гомез-Рейон, Райан Мерфи, Дэвид Семел) [2011, Ужасы, драма, детектив, HDRip] MVO (Amedia) + Original

Ответить на тему
 
Автор
Сообщение

Omen ®

Стаж: 5 лет 7 месяцев

Сообщений: 185412

Торрент-статистика

Пост 08-Июн-2016 00:00

[Цитировать]

Американская история ужасов | American Horror Story- Год выпуска: 2011
Страна: США
Жанр: Ужасы, драма, детектив
Продолжительность: 00:42:00
Перевод: Профессиональный (многоголосый закадровый) | Amedia--Режиссёр: Альфонсо Гомез-Рейон, Райан Мерфи, Дэвид Семел
В ролях: Арик Кашинг, Закари Куинто, Кай Шульц, Тедди Сирс, Конни Бриттон, Джессика Лэнг и др.-Описание: Первый сезон «Американской истории ужасов» повествует о мистических событиях в жизни одной семьи. Это обычная семья, каких сотни тысяч в Америке. У них есть свои скелеты в шкафу, проблемы и недомолвки. Они поселяются в Лос-Анджелесе, в стареньком особняке. Переезд стал спасением для семьи, которая оказалась на грани распада. Между супругами возник конфликт на почве измены, но они нашли в себе силы остаться вместе во благо дочери. Новое место жительства показалось им немного странноватым. Жильцов чуть ли не на пороге испугала соседка, да и её мать оказалась неординарной личностью.--Релиз от
Рип: xironfs
Работа со звуком: xironfs, 13napas
--Сэмпл: http://multi-up.com/1104869-Качество: HDRip
Формат: AVI
Видео: XVID, 720x400 (16:9), 23.976 fps, ~2000 kbps avg, 0.29 bit/pixel
Аудио Rus: AC3 Dolby Digital, 48.0 KHz, 2 channels, ~192 kbps
Аудио Eng: AC3 Dolby Digital, 48.0 KHz, 2 channels, ~192 kbps
Субтитры: отсутствуют

MediaInfo

General
Complete name : E:\Американская история ужасов (Сезон 1) Amedia\American.Horror.Story.s01e01.rus.eng.CasStudio.avi
Format : AVI
Format/Info : Audio Video Interleave
File size : 888 MiB
Duration : 51mn 39s
Overall bit rate : 2 404 Kbps
Writing application : VirtualDubModRus 1.5.10.2 (build 2542/release)
Writing library : VirtualDubMod build 2542/release
Video
ID : 0
Format : MPEG-4 Visual
Format profile : Advanced Simple@L5
Format settings, BVOP : 2
Format settings, QPel : No
Format settings, GMC : No warppoints
Format settings, Matrix : Default (MPEG)
Codec ID : XVID
Codec ID/Hint : XviD
Duration : 51mn 39s
Bit rate : 2 006 Kbps
Width : 720 pixels
Height : 400 pixels
Display aspect ratio : 16:9
Frame rate : 23.976 (23976/1000) fps
Color space : YUV
Chroma subsampling : 4:2:0
Bit depth : 8 bits
Scan type : Progressive
Compression mode : Lossy
Bits/(Pixel*Frame) : 0.290
Stream size : 741 MiB (83%)
Writing library : XviD 65
Audio #1
ID : 1
Format : AC-3
Format/Info : Audio Coding 3
Mode extension : CM (complete main)
Format settings, Endianness : Big
Codec ID : 2000
Duration : 51mn 39s
Bit rate mode : Constant
Bit rate : 192 Kbps
Channel(s) : 2 channels
Channel positions : Front: L R
Sampling rate : 48.0 KHz
Frame rate : 31.250 fps (1536 spf)
Compression mode : Lossy
Stream size : 70.9 MiB (8%)
Alignment : Split accross interleaves
Interleave, duration : 42 ms (1.00 video frame)
Interleave, preload duratio : 500 ms
Audio #2
ID : 2
Format : AC-3
Format/Info : Audio Coding 3
Mode extension : CM (complete main)
Format settings, Endianness : Big
Codec ID : 2000
Duration : 51mn 39s
Bit rate mode : Constant
Bit rate : 192 Kbps
Channel(s) : 2 channels
Channel positions : Front: L R
Sampling rate : 48.0 KHz
Frame rate : 31.250 fps (1536 spf)
Compression mode : Lossy
Stream size : 70.9 MiB (8%)
Alignment : Split accross interleaves
Interleave, duration : 42 ms (1.00 video frame)
Interleave, preload duratio : 500 ms

Скриншоты

--
Вне форума [Профиль] [ЛС]
Похожие темы
Форум Тема Автор Торрент Отв. Посл. сообщение
./templates/default/images/folder_dl.gif Зарубежные сериалы Американская история ужасов / American Horror Story / Сезон: 3 / Серии: 1-13 из 13 (Альфонсо Гомез-Рейон, Майкл Аппендаль, Брэдли Букер) [2013, Ужасы, драма, детектив, WEB-DLRip] MVO (Amedia) + Original Omen
1 | 0

0 | 1294

6

2016-06-09 18:03
Omen Последнее
Показать сообщения:    
Ответить на тему

Текущее время: Сегодня 13:15

Часовой пояс: GMT + 3



Вы не можете начинать темы
Вы не можете отвечать на сообщения
Вы не можете редактировать свои сообщения
Вы не можете удалять свои сообщения
Вы не можете голосовать в опросах
Вы не можете прикреплять файлы к сообщениям
Вы не можете скачивать файлы