Сегодня идет свободное скачивание без начисления Download

Вторжение. Битва за рай / Tomorrow. When The War Began / Сезон: 1 / Серии: 1-6 из 6 (Брэндан Мэйер) [2016, драма, приключения, боевик, WEB-DL 720p] MVO (Студия Jaskier) + Original

Ответить на тему
 
Автор
Сообщение

Omen ®

Стаж: 5 лет 11 месяцев

Сообщений: 184329

Торрент-статистика

Пост 07-Июн-2016 18:00

[Цитировать]

Вторжение. Битва за рай / Tomorrow. When The War Began
Год выпуска: 2016
Страна: Австралия
Жанр: драма, приключения, боевик
Продолжительность: ~45 минут
Перевод: Профессиональный (многоголосый закадровый) Студия Jaskier
Режиссёр: Брэндан Мэйер
В ролях: Нарек Арман, Фантин Банулски, Эндрю Крир, Маделин Клунис-Росс, Молли Дэниэлс, Джон Прасида и другие
Описание: Группа из нескольких подростков отправляется в поход. Все они довольно разные люди, принадлежащие к разным слоям населения, которые являются хорошими друзьями. Именно в этом походе каждый может быть самим собой, они могут расслабиться и как следует повеселиться. Отлично проводя время вместе, молодые люди даже представить себе не могут, что их будет ожидать по возвращению в родной городок. Вернувшись из похода, они видят, что их родную землю захватили пришельцы, которые взяли их родных и близких в плен, а некоторых и вовсе убили. Ребята не знают откуда появился враг и какую цель он преследует, но одно они знают точно — им предстоит долгая и смертельно опасная битва...
Сэмпл: http://sendfile.su/1240637
Качество: WEB-DL 720p
Контейнер: MKV
Видео: 960x720 (16:9), 25.000 fps, ~4000 kbps, ~0.218 bit/pixel
Аудио 1: AC3, 48 kHz, 2 ch, 192 kbps Русский
Аудио 2: AC3, 48 kHz, 5.1 ch, 384 kbps Оригинал (Английский)
Субтитры: нет

MediaInfo

General
Unique ID : 219067378402220987258793715873643761796 (0xA4CED7A6E46F0FB28821A15CEEC81084)
Complete name : H:\COPY\Tomorrow When The War Began S01E01-001.mkv
Format : Matroska
Format version : Version 4 / Version 2
File size : 31.7 MiB
Duration : 1mn 1s
Overall bit rate : 4 344 Kbps
Movie name : Daredevil 2x01 (2016) - Release kmarats for HDCLUB
Encoded date : UTC 2016-06-07 12:25:53
Writing application : mkvmerge v8.3.0 ('Over the Horizon') 64bit
Writing library : libebml v1.3.1 + libmatroska v1.4.2
Video
ID : 1
Format : AVC
Format/Info : Advanced Video Codec
Format profile : Main@L3.1
Format settings, CABAC : No
Format settings, ReFrames : 2 frames
Codec ID : V_MPEG4/ISO/AVC
Duration : 1mn 1s
Bit rate : 3 767 Kbps
Width : 960 pixels
Height : 720 pixels
Display aspect ratio : 16:9
Frame rate mode : Constant
Frame rate : 25.000 fps
Color space : YUV
Chroma subsampling : 4:2:0
Bit depth : 8 bits
Scan type : Progressive
Bits/(Pixel*Frame) : 0.218
Stream size : 27.5 MiB (87%)
Default : Yes
Forced : No
Color range : Limited
Color primaries : BT.709
Transfer characteristics : BT.709
Matrix coefficients : BT.709
Audio #1
ID : 2
Format : AC-3
Format/Info : Audio Coding 3
Mode extension : CM (complete main)
Format settings, Endianness : Big
Codec ID : A_AC3
Duration : 1mn 1s
Bit rate mode : Constant
Bit rate : 192 Kbps
Channel(s) : 2 channels
Channel positions : Front: L R
Sampling rate : 48.0 KHz
Frame rate : 31.250 fps (1536 spf)
Compression mode : Lossy
Delay relative to video : 16ms
Stream size : 1.40 MiB (4%)
Language : Russian
Default : Yes
Forced : No
Audio #2
ID : 3
Format : AC-3
Format/Info : Audio Coding 3
Mode extension : CM (complete main)
Format settings, Endianness : Big
Codec ID : A_AC3
Duration : 1mn 1s
Bit rate mode : Constant
Bit rate : 384 Kbps
Channel(s) : 6 channels
Channel positions : Front: L C R, Side: L R, LFE
Sampling rate : 48.0 KHz
Frame rate : 31.250 fps (1536 spf)
Compression mode : Lossy
Delay relative to video : 8ms
Stream size : 2.80 MiB (9%)
Language : English
Default : No
Forced : No

Скриншоты

Вне форума [Профиль] [ЛС]
Показать сообщения:    
Ответить на тему

Текущее время: Сегодня 15:04

Часовой пояс: GMT + 3



Вы не можете начинать темы
Вы не можете отвечать на сообщения
Вы не можете редактировать свои сообщения
Вы не можете удалять свои сообщения
Вы не можете голосовать в опросах
Вы не можете прикреплять файлы к сообщениям
Вы не можете скачивать файлы