Сегодня идет свободное скачивание без начисления Download

Джекилл и Хайд / Jekyll and Hyde / Сезон: 1 / Серии: 1-10 из 10 (Колин Тиг, Стюарт Сваасанд) [2015, боевик, драма, приключения, WEB-DLRip] MVO (SET) + Original

Ответить на тему
 
Автор
Сообщение

Omen ®

Стаж: 5 лет 9 месяцев

Сообщений: 184433

Торрент-статистика

Пост 07-Июн-2016 03:00

[Цитировать]

Джекилл и Хайд / Jekyll and Hyde
Год выпуска: 2015
Страна: Великобритания
Жанр: боевик, драма, приключения
Продолжительность: 00:46:00
Перевод: Профессиональный (многоголосый закадровый) SET
Режиссёр: Колин Тиг, Стюарт Сваасанд
В ролях: Том Рис Харрис / Tom Rhys Harries (Sackler), Stephanie Hyam (Lily Clarke), Оливер Гилберт / Oliver Gilbert (Mister Wax), Тони Вэй / Tony Way (Silas), Нил Бишоп / Neil Bishop (MIO Officer), Дебора Росан / Deborah Rosan (Bella's girl), Том Бейтман / Tom Bateman (Robert Jekyll), Руби Бенталл / Ruby Bentall (Hils)
Описание: Действие мистического триллера разворачивается в Лондоне 1930-х годов, а в центре сюжета оказывается внук доктора Джекила - очаровательный интеллектуал Роберт Джекил. Воспитанный приемными родителями, Роберт живет в Индии и готовится получить диплом врача, не подозревая о своем "семейном проклятии", которое все это время сдерживал его приемный отец - доктор Наджаран. Но в итоге тайное все же становится явным, и Роберту приходится столкнуться со своим альтер эго - Хайдом, мощным, быстрым и неуязвимым псевдосупергероем, в которого Роберт превращается в моменты сильного стресса и опасности. На протяжении десяти часовых эпизодов Роберт и Хайд будут пытаться прийти к согласию и как-то ужиться друг с другом, ведь без этого они не смогут противостоять многочисленным сверхъестественным тварям - оборотням, вампирам и другим монстрам.
Доп. информация: В начале и конце серий сделаны вставки с озвучкой NewStudio ("в следующей, предыдущей серии")
Сэмпл: http://multi-up.com/1104745
Качество: WEB-DLRip
Формат: AVI
Видео: MPEG4, DivX 5, 720x400 (16:9), 25.000 fps, 1 690 Kbps (0.235 bit/pixel)
Аудио: AC-3, 48.0 KHz, 2 ch, 192 Kbps, CBR - русский
Аудио 2: AC-3, 48.0 KHz, 2 ch, 192 Kbps, CBR - английский
Субтитры: нет

MediaInfo

Общее
Полное имя : M:\1x01 - The Harbinger (Предзнаменование).avi
Формат : AVI
Формат/Информация : Audio Video Interleave
Размер файла : 703 Мбайт
Продолжительность : 47 м.
Общий поток : 2089 Кбит/сек
Название фильма : Джекилл и Хайд. Сезон 1 / Jekyll and Hyde. Season 1 (2015)
Программа кодирования : VirtualDubMod 1.5.10.2 (build 2540/release)
Библиотека кодирования : VirtualDubMod build 2540/release
Авторское право : miha2154
Видео
Идентификатор : 0
Формат : MPEG-4 Visual
Профиль формата : Advanced Simple@L5
Параметр BVOP формата : 1
Параметр QPel формата : Нет
Параметр GMC формата : Без точки перехода
Параметр матрицы формата : Выборочная
Идентификатор кодека : DX50
Идентификатор кодека/Подсказка : DivX 5
Продолжительность : 47 м.
Битрейт : 1690 Кбит/сек
Ширина : 720 пикселей
Высота : 400 пикселей
Соотношение сторон : 16:9
Частота кадров : 25,000 кадров/сек
Цветовое пространство : YUV
Субдискретизация насыщенности : 4:2:0
Битовая глубина : 8 бит
Тип развёртки : Прогрессивная
Метод сжатия : С потерями
Бит/(Пиксели*Кадры) : 0.235
Размер потока : 569 Мбайт (81%)
Библиотека кодирования : XviD 65
Аудио #1
Идентификатор : 1
Формат : AC-3
Формат/Информация : Audio Coding 3
Расширение режима : CM (complete main)
Параметр Endianness формата : Big
Идентификатор кодека : 2000
Продолжительность : 47 м.
Вид битрейта : Постоянный
Битрейт : 192 Кбит/сек
Каналы : 2 канала
Расположение каналов : Front: L R
Частота : 48,0 КГц
Частота кадров : 31,250 кадров/сек (1536 spf)
Метод сжатия : С потерями
Размер потока : 64,6 Мбайт (9%)
Выравнивание : Разделение по промежуткам
Продолжительность промежутка : 40 мс. (1,00 видеокадр)
Время предзагрузки промежутка : 500 мс.
Заголовок : Профессиональный (многоголосый закадровый) SET
Аудио #2
Идентификатор : 2
Формат : AC-3
Формат/Информация : Audio Coding 3
Расширение режима : CM (complete main)
Параметр Endianness формата : Big
Идентификатор кодека : 2000
Продолжительность : 47 м.
Вид битрейта : Постоянный
Битрейт : 192 Кбит/сек
Каналы : 2 канала
Расположение каналов : Front: L R
Частота : 48,0 КГц
Частота кадров : 31,250 кадров/сек (1536 spf)
Метод сжатия : С потерями
Размер потока : 64,6 Мбайт (9%)
Выравнивание : Разделение по промежуткам
Продолжительность промежутка : 40 мс. (1,00 видеокадр)
Время предзагрузки промежутка : 500 мс.
Заголовок : Английский

Скриншоты


Вне форума [Профиль] [ЛС]
Показать сообщения:    
Ответить на тему

Текущее время: Сегодня 16:42

Часовой пояс: GMT + 3



Вы не можете начинать темы
Вы не можете отвечать на сообщения
Вы не можете редактировать свои сообщения
Вы не можете удалять свои сообщения
Вы не можете голосовать в опросах
Вы не можете прикреплять файлы к сообщениям
Вы не можете скачивать файлы