Сегодня идет свободное скачивание без начисления Download

Наручники / Cuffs / Сезон: 1 / Серии: 1 из 8 (Кирон Хоукс, Энтони Филипсон, Ник Роулэнд) [2015, Детектив, драма, криминал, HDTVRip] DVO (kiitos)

Ответить на тему
 
Автор
Сообщение

Omen ®

Стаж: 5 лет 9 месяцев

Сообщений: 184393

Торрент-статистика

Пост 06-Июн-2016 21:00

[Цитировать]

-Наручники | Cuffs-- Страна: Великобритания
Год выпуска: 2015
Жанр: детектив, драма, криминал
Продолжительность: ~ 00:56:00-Перевод: Любительский (двухголосый закадровый) | kiitos-Режиссёр: Кирон Хоукс, Энтони Филипсон, Ник Роулэнд-В ролях: Аманда Аббингтон, Карен Брайсон, Алекс Картер, Шон Дули, Робби Ги, Эндрю Хоули, Элинор Мацуура, Пол Рэди, Питер Салливан-Описание: Сериал о копах-новобранцах, которые в своей работе сталкиваются с наркоманами, самоубийцами, насилием в семье, а также расовой и сексуальной дискриминацией в обществе и в правоохранительных органах.- --Качество: HDTVRip
Формат: AVI
Видео: XviD, 720x400 (16:9), 25 fps, ~1400 kbps
Аудио: MP3, 48 kHz, 2 ch, 128 kbps - Rus
Аудио: MP3, 48 kHz, 2 ch, 128 kbps - Eng
Субтитры: отсутствуют-Релиз без рекламы.-

Релиз

Перевод: Двухголосый, закадровый (kiitos.tv)
Перевод: Инна Елисеева
Озвучивание: kiitos, Chertenok
Релиз без рекламы.

MediaInfo

Код:
Общее
Полное имя                               : D:\загрузки\Cuffs (Season 01) kiitos\Cuffs.S01E01.HDTVRip.kiitos.avi
Формат                                   : AVI
Формат/Информация                        : Audio Video Interleave
Размер файла                             : 651 Мбайт
Продолжительность                        : 56 м.
Общий поток                              : 1614 Кбит/сек
Программа кодирования                    : VirtualDubMod 1.5.10.3 | www.virtualdub-fr.org || (build 2550/release)
Библиотека кодирования                   : VirtualDubMod build 2550/release
Видео
Идентификатор                            : 0
Формат                                   : MPEG-4 Visual
Профиль формата                          : Advanced Simple@L5
Параметр BVOP формата                    : 1
Параметр QPel формата                    : Нет
Параметр GMC формата                     : Без точки перехода
Параметр матрицы формата                 : Default (MPEG)
Идентификатор кодека                     : XVID
Идентификатор кодека/Подсказка           : XviD
Продолжительность                        : 56 м.
Битрейт                                  : 1344 Кбит/сек
Ширина                                   : 720 пикселей
Высота                                   : 400 пикселей
Соотношение сторон                       : 16:9
Частота кадров                           : 25,000 кадров/сек
Цветовое пространство                    : YUV
Субдискретизация насыщенности            : 4:2:0
Битовая глубина                          : 8 бит
Тип развёртки                            : Прогрессивная
Метод сжатия                             : С потерями
Бит/(Пиксели*Кадры)                      : 0.187
Размер потока                            : 542 Мбайт (83%)
Библиотека кодирования                   : XviD 73
Аудио #1
Идентификатор                            : 1
Формат                                   : MPEG Audio
Версия формата                           : Version 1
Профиль формата                          : Layer 3
Режим                                    : Joint stereo
Расширение режима                        : MS Stereo
Идентификатор кодека                     : 55
Идентификатор кодека/Подсказка           : MP3
Продолжительность                        : 56 м.
Вид битрейта                             : Постоянный
Битрейт                                  : 128 Кбит/сек
Каналы                                   : 2 канала
Частота                                  : 48,0 КГц
Метод сжатия                             : С потерями
Размер потока                            : 51,6 Мбайт (8%)
Выравнивание                             : Соединение по промежуткам
Продолжительность промежутка             : 40  мс. (1,00 видеокадр)
Время предзагрузки промежутка            : 504  мс.
Аудио #2
Идентификатор                            : 2
Формат                                   : MPEG Audio
Версия формата                           : Version 1
Профиль формата                          : Layer 3
Режим                                    : Joint stereo
Расширение режима                        : MS Stereo
Идентификатор кодека                     : 55
Идентификатор кодека/Подсказка           : MP3
Продолжительность                        : 56 м.
Вид битрейта                             : Постоянный
Битрейт                                  : 128 Кбит/сек
Каналы                                   : 2 канала
Частота                                  : 48,0 КГц
Метод сжатия                             : С потерями
Размер потока                            : 51,6 Мбайт (8%)
Выравнивание                             : Соединение по промежуткам
Продолжительность промежутка             : 40  мс. (1,00 видеокадр)
Время предзагрузки промежутка            : 504  мс.
[/spoiler]

Скриншоты

Раздача ведется путем добавления новых серий

Когда раздача ведётся путём добавления новых серий, при каждом добавлении создётся новый торрент. Чтобы начать докачку новой серии, пользователям необходимо сделать следующее:
(1) остановить скачивание,
(2) удалить старый торрент у себя из клиента (старые серии удалять не надо),
(3) скачать новый торрент и запустить его у себя в клиенте вместо старого, при этом указать клиенту путь в старую папку, куда и должно происходить скачивание новых серий.
Ваш клиент при этом должен произвести хеширование (проверку) старой папки (если не производит сам - помогите ему сделать это), и будет докачивать только те серии, которых у вас ещё нет. Старые серии при этом не удаляются, а продолжают раздаваться!
Eсли вы уже удалили старые серии, то предотвратить повторную закачку старых серий можно, отжав галочку в соответсвующих местах при запуске нового торрента. По возможности, желательно не удалять старые серии как можно дольше, чтобы релизёр не столько продолжал раздавать старые серии, а смог сконцентрироваться на новых.
-
Вне форума [Профиль] [ЛС]
Показать сообщения:    
Ответить на тему

Текущее время: Сегодня 15:09

Часовой пояс: GMT + 3



Вы не можете начинать темы
Вы не можете отвечать на сообщения
Вы не можете редактировать свои сообщения
Вы не можете удалять свои сообщения
Вы не можете голосовать в опросах
Вы не можете прикреплять файлы к сообщениям
Вы не можете скачивать файлы