Сегодня идет свободное скачивание без начисления Download

Королевство / Kingdom / Сезон: 2 / Серии: 11 из 20 (Майкл Моррис) [2016, спорт, драма, боевик, HDTVRip] MVO (OmskBird) + Original

Ответить на тему
 
Автор
Сообщение

Omen ®

Стаж: 5 лет 11 месяцев

Сообщений: 184329

Торрент-статистика

Пост 06-Июн-2016 15:00

[Цитировать]

--Королевство / Kingdom-- Год выпуска: 2016
Страна: США
Жанр: спорт, драма, боевик
Продолжительность: ~00:46:00-Перевод: Профессиональный (многоголосый закадровый) OmskBird-Режиссёр: Майкл Моррис / Michael Morris-В ролях: Фрэнк Грилло, Мэтт Лауриа, Киле Санчес, Ник Джонас, Джонатан Такер, Джо П. Харрис и др.-Описание: Суровые будни дисфункциональной семьи MMA-спортсменов и их клуба в солнечном Лос-Анжелесе.
Алви Кулина и его девушка Лиза всеми силами пытаются удержать свой недавно открытый спортзал на плаву. Все надежды возлагаются на Нейта, младшего сына Алви, которого тренируют как будущего чемпиона, способного принести спортзалу приток новых клиентов. Со своим старшим сыном Джеем Алви находится на ножах, и любое его появление вносит раздор и хаос. Все меняется, когда на горизонте появляется Райан, недавно вышедшая из тюрьмы звезда ринга и бывший парень Лизы. Алви собирается вернуть Райану былую славу.-Доп. информация:
Релиз-группа:
Релиз подготовил:Grandfather61
Роли озвучивали: Владимир Рыбальченко, Константин Погодаев, Павел Ярощик, Анастасия Флигина
Перевод: Егор Ярославцев
Звукорежиссер: Павел Квентов
Постер: Ксения Просветова
Работа с видео и звуком: Grandfather61- -[url=tracker.php?f=189,2366&nm=Kingdom+-last+-2000+-2004+-1999+-2010+-2007+-1995+-2008+-2009+-]Ссылка на предыдущие и альтернативные раздачи[/url]- -Качество: HDTVRip
Контейнер: AVI
Видео: 720x400 (1.80:1), 23.976 fps, XviD build 73 ~1510 kbps avg, 0.22 bit/pixel
Аудио: AC3, 48 kHz, 2 ch, 192 kbps - OMSKBIRD records
Аудио 2: AC3, 48 kHz, 2 ch, 320 kbps - оригинал
Субтитры: отсутствуют

Список серий

11. Lay and Pray

MediaInfo

General
Complete name : G:\Films\Kingdom.S02.400p.HDTVRip.OmskBird\KingdomS02E11..400p.HDTVRip.OmskBird.avi
Format : AVI
Format/Info : Audio Video Interleave
File size : 721 MiB
Duration : 49mn 29s
Overall bit rate : 2 037 Kbps
Writing application : VirtualDubMod 1.5.10.3 (build 2550/release)
Writing library : VirtualDubMod build 2550/release
Video
ID : 0
Format : MPEG-4 Visual
Format profile : Advanced Simple@L5
Format settings, BVOP : 1
Format settings, QPel : No
Format settings, GMC : No warppoints
Format settings, Matrix : Default (MPEG)
Codec ID : XVID
Codec ID/Hint : XviD
Duration : 49mn 29s
Bit rate : 1 511 Kbps
Width : 720 pixels
Height : 400 pixels
Display aspect ratio : 16:9
Frame rate : 23.976 (23976/1000) fps
Color space : YUV
Chroma subsampling : 4:2:0
Bit depth : 8 bits
Scan type : Progressive
Compression mode : Lossy
Bits/(Pixel*Frame) : 0.219
Stream size : 535 MiB (74%)
Writing library : XviD 73
Audio #1
ID : 1
Format : AC-3
Format/Info : Audio Coding 3
Mode extension : CM (complete main)
Format settings, Endianness : Big
Codec ID : 2000
Duration : 49mn 29s
Bit rate mode : Constant
Bit rate : 192 Kbps
Channel(s) : 2 channels
Channel positions : Front: L R
Sampling rate : 48.0 KHz
Frame rate : 31.250 fps (1536 spf)
Compression mode : Lossy
Stream size : 68.0 MiB (9%)
Alignment : Split accross interleaves
Interleave, duration : 42 ms (1.00 video frame)
Interleave, preload duratio : 500 ms
Audio #2
ID : 2
Format : AC-3
Format/Info : Audio Coding 3
Mode extension : CM (complete main)
Format settings, Endianness : Big
Codec ID : 2000
Duration : 49mn 29s
Bit rate mode : Constant
Bit rate : 320 Kbps
Channel(s) : 2 channels
Channel positions : Front: L R
Sampling rate : 48.0 KHz
Frame rate : 31.250 fps (1536 spf)
Compression mode : Lossy
Stream size : 113 MiB (16%)
Alignment : Split accross interleaves
Interleave, duration : 42 ms (1.00 video frame)
Interleave, preload duratio : 500 ms

Скриншоты


[/url]

Внимание! Раздача ведётся путём добавления новых серий.


Внимание! Раздача ведётся путём добавления новых серий; при каждом добавлении создётся новый торрент. Чтобы начать докачку новой серии, пользователям необходимо сделать следующее:
Остановить скачивание.
Удалить старый торрент у себя из клиента (старые серии удалять не надо).
Скачать новый торрент и запустить его у себя в клиенте вместо старого, при этом указать клиенту путь в старую папку куда и должно происходить скачивание новых серий.
Ваш клиент при этом должен произвести хеширование (проверку) старой папки (если не производит сам - помогите ему сделать это), и будет докачивать только те серии которых у вас ещё нет. Старые серии при этом не удаляются, а продолжают раздаваться!
Eсли вы уже удалили старые серии, то предотвратить повторную закачку старых серий можно, отжав галочку в соответсвующих местах при запуске нового торрента. По возможности, желательно не удалять старые серии как можно дольше чтобы релизёр не столько продолжал раздавать старые серии, а смог сконцентрироваться на новых.
Вне форума [Профиль] [ЛС]
Показать сообщения:    
Ответить на тему

Текущее время: Сегодня 02:06

Часовой пояс: GMT + 3



Вы не можете начинать темы
Вы не можете отвечать на сообщения
Вы не можете редактировать свои сообщения
Вы не можете удалять свои сообщения
Вы не можете голосовать в опросах
Вы не можете прикреплять файлы к сообщениям
Вы не можете скачивать файлы