Сегодня идет свободное скачивание без начисления Download

Заключенный / Узник / Пленник / The Prisoner / Сезон: 1 / Серии: 1-17 из 17 (Патрик МакГухан, Дон Чэффи) [1967, Драма, Детектив, Фантастика, BDRip 720p] DVO (HamsterStudio) + Original

Ответить на тему
 
Автор
Сообщение

Omen ®

Стаж: 5 лет 11 месяцев

Сообщений: 184329

Торрент-статистика

Пост 05-Июн-2016 18:00

[Цитировать]

Заключенный / Пленник / Узник / The Prisoner
Год выпуска: 1967
Страна: Великобритания
Жанр: Драма, Детектив, Фантастика
Продолжительность: 14:17:54
Перевод: Любительский (двухголосый закадровый), HamsterStudio
Режиссёр: Патрик МакГухан, Дон Чэффи
В ролях: Патрик МакГухан, Джордж Маркстайн, Анджело Мускат, Питер Стэнвик, Фенелла Филдинг, Лео МакКерн, Кристофер Бенжамин, Майкл Миллер, Алексис Каннер, Фрэнк Мехер
Описание: Сериал повествует о безымянном британском агенте, который только что уволился и вдруг оказывается в «Деревне», изолированной от мира горами и морем. Деревня прямо таки напичкана системами наблюдения и защитными полями, также есть мистическое устройство называемое Ровер, которое ловит всех, кто пытается сбежать. Деревня населена сотнями людей из разных культур и слоев общества, кажется что каждый спокойно живет своей жизнью. У всех жителей номера, вместо имён, они не помнят ничего о своей прошлой жизни. Главного героя все называют «Шестой». Не зная кому доверять, «Шестой» пытается узнать правду об этом загадочном месте, выяснить причину его появления в «Деревне» и самое главное — найти способ сбежать отсюда.
Доп. информация: Культовая шпионская фантасмагория, ссылки на которую имеются во многих культурных слоях: в музыке, книгах, фильмах. Секретный агент (его играет Patrick McGoohan - основной сценарист, режиссёр и продюсер сериала) неожиданно подаёт в отставку, но отказывается объяснять причины. Чтобы добиться от него сведений, начальство помещает его в некий городок, которого нет ни на одной карте.
Сэмпл: https://yadi.sk/i/XGCdNYQ8sGEVa
Качество: BDRip 720p
Контейнер: MKV
Видео: MPEG-4 AVC, ~ 4016 Кбит/с, 1280x960
Аудио: Русский (AC3, 6 ch, 448 Кбит/с)
Аудио 2: Английский (AC3, 6 ch, 448 Кбит/с)
Субтитры: Отсутствуют

MediaInfo

General
Unique ID : 195171194619647537428500754849931964085 (0x92D49AD42BEA3AACA3DE46873D8FAEB5)
Complete name : C:\Downloads\The Prisoner\The.Prisoner.s01e01.720p.BluRay.HamsterStudio.org.mkv
Format : Matroska
Format version : Version 4 / Version 2
File size : 1.78 GiB
Duration : 50mn 58s
Overall bit rate : 5 012 Kbps
Encoded date : UTC 2015-10-03 16:53:35
Writing application : mkvmerge v7.8.0 ('River Man') 64bit built on Mar 27 2015 16:31:37
Writing library : libebml v1.3.1 + libmatroska v1.4.2
DURATION : 00:50:58.048000000
NUMBER_OF_FRAMES : 95564
NUMBER_OF_BYTES : 171250688
_STATISTICS_WRITING_APP : mkvmerge v7.8.0 ('River Man') 64bit built on Mar 27 2015 16:31:37
_STATISTICS_WRITING_DATE_UTC : 2015-10-03 16:53:35
_STATISTICS_TAGS : BPS DURATION NUMBER_OF_FRAMES NUMBER_OF_BYTES
Video
ID : 1
Format : AVC
Format/Info : Advanced Video Codec
Format profile : High@L4.0
Format settings, CABAC : Yes
Format settings, ReFrames : 6 frames
Codec ID : V_MPEG4/ISO/AVC
Duration : 50mn 58s
Bit rate : 4 016 Kbps
Width : 1 280 pixels
Height : 960 pixels
Display aspect ratio : 4:3
Frame rate mode : Constant
Frame rate : 24.000 fps
Color space : YUV
Chroma subsampling : 4:2:0
Bit depth : 8 bits
Scan type : Progressive
Bits/(Pixel*Frame) : 0.136
Stream size : 1.43 GiB (80%)
Writing library : x264 core 128
Encoding settings : cabac=1 / ref=6 / deblock=1:0:0 / analyse=0x3:0x133 / me=umh / subme=11 / psy=1 / psy_rd=1.00:0.00 / mixed_ref=1 / me_range=16 / chroma_me=1 / trellis=2 / 8x8dct=1 / cqm=0 / deadzone=21,11 / fast_pskip=1 / chroma_qp_offset=-2 / threads=12 / lookahead_threads=2 / sliced_threads=0 / nr=0 / decimate=1 / interlaced=0 / bluray_compat=0 / constrained_intra=0 / bframes=6 / b_pyramid=2 / b_adapt=2 / b_bias=0 / direct=3 / weightb=1 / open_gop=0 / weightp=2 / keyint=240 / keyint_min=24 / scenecut=40 / intra_refresh=0 / rc_lookahead=100 / rc=crf / mbtree=1 / crf=20.0 / qcomp=0.60 / qpmin=3 / qpmax=69 / qpstep=4 / ip_ratio=1.40 / aq=1:1.00
Language : English
Default : Yes
Forced : No
Color primaries : BT.709
Transfer characteristics : BT.709
Matrix coefficients : BT.709
Audio #1
ID : 2
Format : AC-3
Format/Info : Audio Coding 3
Mode extension : CM (complete main)
Format settings, Endianness : Big
Codec ID : A_AC3
Duration : 50mn 58s
Bit rate mode : Constant
Bit rate : 448 Kbps
Channel count : 6 channels
Channel positions : Front: L C R, Side: L R, LFE
Sampling rate : 48.0 KHz
Bit depth : 16 bits
Compression mode : Lossy
Stream size : 163 MiB (9%)
Language : Russian
Default : Yes
Forced : Yes
Audio #2
ID : 3
Format : AC-3
Format/Info : Audio Coding 3
Mode extension : CM (complete main)
Format settings, Endianness : Big
Codec ID : A_AC3
Duration : 50mn 58s
Bit rate mode : Constant
Bit rate : 448 Kbps
Channel count : 6 channels
Channel positions : Front: L C R, Side: L R, LFE
Sampling rate : 48.0 KHz
Bit depth : 16 bits
Compression mode : Lossy
Stream size : 163 MiB (9%)
Language : English
Default : No
Forced : No
Menu
00:00:00.000 : en:Chapter 1
00:02:16.541 : en:Chapter 2
00:06:20.958 : en:Chapter 3
00:09:29.541 : en:Chapter 4
00:15:30.208 : en:Chapter 5
00:20:54.208 : en:Chapter 6
00:28:05.833 : en:Chapter 7
00:36:16.583 : en:Chapter 8
00:42:30.583 : en:Chapter 9
00:45:30.166 : en:Chapter 10

Скриншоты

Вне форума [Профиль] [ЛС]
Показать сообщения:    
Ответить на тему

Текущее время: Сегодня 02:06

Часовой пояс: GMT + 3



Вы не можете начинать темы
Вы не можете отвечать на сообщения
Вы не можете редактировать свои сообщения
Вы не можете удалять свои сообщения
Вы не можете голосовать в опросах
Вы не можете прикреплять файлы к сообщениям
Вы не можете скачивать файлы