Сегодня идет свободное скачивание без начисления Download

C любовью, Нина / Love, Nina / Сезон: 1 / Серии 1 (5) (С.Дж. Кларксон) [2016, комедия, HDTVRip 720p] DVO (Ozz) + Original + Rus Sub

Ответить на тему
 
Автор
Сообщение

Omen ®

Стаж: 5 лет 6 месяцев

Сообщений: 186946

Торрент-статистика

Пост 05-Июн-2016 15:00

[Цитировать]

Love, Nina - First Season
C любовью, Нина - Первый сезон- Год выхода: 2016
Страна: Великобритания
Жанр: комедия
Продолжительность: ~27 мин
Перевод: Профессиональный (двухголосый закадровый) Ozz-Режиссер: С.Дж. Кларксон
В ролях: Хелена Бонем Картер, Sam Frears, Фэй Марсей, Ethan Rouse, Джейсон Уоткинс, Harry Webster, Джош МакГуайр, Селина Каделл, Дэвид Мумени, Джонатан Арис и др.-Описание: Действие происходит в 1982 году. 21-летняя Нина из Лестера переезжает в Северный Лондон, чтобы присматривать за двумя мальчишками, сыновьями матери-одиночки Джорджии.- -Sample- Роли озвучивают: |Ирина Воронова и Алексей Серегин|
Автор перевода: |Василий Мерзляков|
Подготовлено: Ozz-Качество: HDTVRip 720p
Формат: mkv
Видео кодек: x264
Аудио кодек: AC3
Видео: 1280x720 at 25 fps, AVC, 3000 kbps avg, 0.109 b/pixel
Аудио #1: Russian 48.0 KHz, AC3 , 2 channels, 192 Kbps |Ozz|
Аудио #2: English 48.0 KHz, AC3 , 2 channels, 192 Kbps |Original|
Субтитры: Russian - (srt)

MediaInfo

Код:
Общее
Уникальный идентификатор                 : 222149385474947899782973847909420889971 (0xA7206A551EF61291953461F614A1F773)
Полное имя                               : H:\Love.Nina.S01.720p.HDTVRip.Rus.Eng.Ozz\Love.Nina.S01E01.720p.HDTVRip.Rus.Eng.Ozz.mkv
Формат                                   : Matroska
Версия формата                           : Version 4 / Version 2
Размер файла                             : 577 Мбайт
Продолжительность                        : 27 м.
Общий поток                              : 2953 Кбит/сек
Дата кодирования                         : UTC 2016-06-05 10:27:38
Программа кодирования                    : mkvmerge v6.3.0 ('You can't stop me!') built on Jun 28 2013 20:09:41
Библиотека кодирования                   : libebml v1.3.0 + libmatroska v1.4.0
Видео
Идентификатор                            : 1
Формат                                   : AVC
Формат/Информация                        : Advanced Video Codec
Профиль формата                          : High@L4.1
Параметр CABAC формата                   : Да
Параметр ReFrames формата                : 5 кадров
Идентификатор кодека                     : V_MPEG4/ISO/AVC
Продолжительность                        : 27 м.
Битрейт                                  : 2510 Кбит/сек
Ширина                                   : 1280 пикселей
Высота                                   : 720 пикселей
Соотношение сторон                       : 16:9
Режим частоты кадров                     : Постоянный
Частота кадров                           : 25,000 кадров/сек
Цветовое пространство                    : YUV
Субдискретизация насыщенности            : 4:2:0
Битовая глубина                          : 8 бит
Тип развёртки                            : Прогрессивная
Бит/(Пиксели*Кадры)                      : 0.109
Размер потока                            : 490 Мбайт (85%)
Библиотека кодирования                   : x264 core 148 r2694 3b70645
Настройки программы                      : cabac=1 / ref=5 / deblock=1:0:0 / analyse=0x3:0x113 / me=umh / subme=8 / psy=1 / psy_rd=1.00:0.00 / mixed_ref=1 / me_range=16 / chroma_me=1 / trellis=1 / 8x8dct=1 / cqm=0 / deadzone=21,11 / fast_pskip=1 / chroma_qp_offset=-2 / threads=12 / lookahead_threads=2 / sliced_threads=0 / nr=0 / decimate=1 / interlaced=0 / bluray_compat=0 / constrained_intra=0 / bframes=3 / b_pyramid=2 / b_adapt=2 / b_bias=0 / direct=3 / weightb=1 / open_gop=0 / weightp=2 / keyint=250 / keyint_min=25 / scenecut=40 / intra_refresh=0 / rc_lookahead=50 / rc=crf / mbtree=1 / crf=18.0 / qcomp=0.60 / qpmin=0 / qpmax=69 / qpstep=4 / ip_ratio=1.40 / aq=1:1.00
Язык                                     : English
Default                                  : Да
Forced                                   : Нет
Аудио #1
Идентификатор                            : 2
Формат                                   : AC-3
Формат/Информация                        : Audio Coding 3
Расширение режима                        : CM (complete main)
Параметр Endianness формата              : Big
Идентификатор кодека                     : A_AC3
Продолжительность                        : 27 м.
Вид битрейта                             : Постоянный
Битрейт                                  : 192 Кбит/сек
Каналы                                   : 2 канала
Расположение каналов                     : Front: L R
Частота                                  : 48,0 КГц
Битовая глубина                          : 16 бит
Метод сжатия                             : С потерями
Размер потока                            : 37,5 Мбайт (7%)
Заголовок                                : DVO Ozz-tv
Язык                                     : Russian
Default                                  : Да
Forced                                   : Нет
Аудио #2
Идентификатор                            : 3
Формат                                   : AC-3
Формат/Информация                        : Audio Coding 3
Расширение режима                        : CM (complete main)
Параметр Endianness формата              : Big
Идентификатор кодека                     : A_AC3
Продолжительность                        : 27 м.
Вид битрейта                             : Постоянный
Битрейт                                  : 192 Кбит/сек
Каналы                                   : 2 канала
Расположение каналов                     : Front: L R
Частота                                  : 48,0 КГц
Битовая глубина                          : 16 бит
Метод сжатия                             : С потерями
Размер потока                            : 37,5 Мбайт (7%)
Язык                                     : English
Default                                  : Нет
Forced                                   : Нет
Текст
Идентификатор                            : 4
Формат                                   : UTF-8
Идентификатор кодека                     : S_TEXT/UTF8
Идентификатор кодека/Информация          : UTF-8 Plain Text
Заголовок                                : Василий Мерзляков
Язык                                     : Russian
Default                                  : Нет
Forced                                   : Нет

Screenshots

Внимание! Раздача ведётся путём добавления новых серий

Внимание! Раздача ведётся путём добавления новых серий; при каждом добавлении создаётся новый торрент. Чтобы начать докачку новой серии, пользователям необходимо сделать следующее:
(1) остановить скачивание,
(2) удалить старый торрент у себя из клиента (старые серии удалять не надо),
(3) скачать новый торрент и запустить его у себя в клиенте вместо старого, при этом указать клиенту путь в старую папку куда и должно происходить скачивание новых серий.
Ваш клиент при этом должен произвести хеширование (проверку) старой папки (если не производит сам - помогите ему сделать это), и будет докачивать только те серии которых у вас ещё нет. Старые серии при этом не удаляются, а продолжают раздаваться!
Eсли вы уже удалили старые серии, то предотвратить повторную закачку старых серий можно, отжав галочку в соответствующих местах при запуске нового торрента. По возможности, желательно не удалять старые серии как можно дольше чтобы релизёр не столько продолжал раздавать старые серии, а смог сконцентрироваться на новых.
-
Вне форума [Профиль] [ЛС]
Показать сообщения:    
Ответить на тему

Текущее время: Сегодня 07:39

Часовой пояс: GMT + 3



Вы не можете начинать темы
Вы не можете отвечать на сообщения
Вы не можете редактировать свои сообщения
Вы не можете удалять свои сообщения
Вы не можете голосовать в опросах
Вы не можете прикреплять файлы к сообщениям
Вы не можете скачивать файлы