Сегодня идет свободное скачивание без начисления Download

Мария Верн / Maria Wern / Сезон: 3 / Серии: 1-2 из 2 (Эрик Лейжонборг / Erik Leijonborg) [2013, криминал, HDTV 1080i] MVO

Ответить на тему
 
Автор
Сообщение

Omen ®

Стаж: 5 лет 7 месяцев

Сообщений: 185427

Торрент-статистика

Пост 04-Июн-2016 18:00

[Цитировать]

Мария Верн / Maria Wern3 сезон: 1-2 серии из 2 Год выпуска: 2013
Страна: Швеция
Жанр: криминал
Продолжительность: ~ 01:26:00 серия
Перевод: Профессиональный (многоголосый закадровый) /Русский репортаж/
Режиссёр: Эрик Лейжонборг / Erik Leijonborg
В ролях: Эва Рёзе, Аллан Свенссон, Эрик Йоханссон, Петер Перски, Ульф Фриберг, Таня Лорентцон, Оскар Петтерссон, Matilda Wännström, Emma Melkersson, Йозефина Альханко
Описание: Какие причины могут быть для убийства обычной женщины? Неверность мужу? А может быть явная и открытая нелюбовь к секс меньшинствам? Именно между этими двумя причинами убийства приходится строить своё расследование Марии Верн. Девушка расследует убийство женщины, чьё тело нашли в окрестностях одного города. И только Мария находит более менее адекватный путь расследования, так сразу совершается другое преступление, которое абсолютно не вяжется с предпологаемым мотивом, но явно связано с предыдущей жертвой. А за ним ещё и ещё убийства. Мария ищет убийцу, а возможно, и нескольких преступников.
Мария Верн - сильная женщина, и к тому же, полицейский детектив. Судьба её весьма нелегка, но она не отчаивается и продолжает заниматься любимым делом - расследованиями.


Сэмпл:
Качество: HDTV 1080i
Контейнер: TS
Видео: AVC/H.264, PAL, 1920x1080 (16:9), 9008 (8982) Кбит/сек, 25.000 fps
Аудио 1: русский, MP2, 2ch, 48,0 КГц, 192 Кбит/сек
Аудио 2: русский, AC3, 6ch, 48,0 КГц, 448 Кбит/сек
Субтитры: отсутствуют

Список серий

Мария Верн: Пока не умер донор / Мария Верн: Увековеченная смерть / Maria Wern: Drömmen förde dig vilse
Мария Верн: Мечта привела вас в заблуждение / Мария Верн: Заблудившийся во снах / Maria Wern: Drömmen förde dig vilse

MediaInfo

Общее
Идентификатор : 1 (0x1)
Полное имя : D:\Maria Wern\Maria Wern Drömmen förde dig vilse.ts
Формат : MPEG-TS
Размер файла : 6,12 Гбайт
Продолжительность : 1 ч. 26 м.
Режим общего битрейта : Переменный
Общий поток : 10,2 Мбит/сек
Видео
Идентификатор : 3021 (0xBCD)
Идентификатор меню : 1 (0x1)
Формат : AVC
Формат/Информация : Advanced Video Codec
Профиль формата : Main@L4.0
Параметр CABAC формата : Да
Параметр ReFrames формата : 3 кадра
Идентификатор кодека : 27
Продолжительность : 1 ч. 26 м.
Битрейт : 9008 Кбит/сек
Ширина : 1920 пикселей
Высота : 1080 пикселей
Соотношение сторон : 16:9
Частота кадров : 25,000 кадров/сек
Стандарт вещания : Component
Цветовое пространство : YUV
Субдискретизация насыщенности : 4:2:0
Битовая глубина : 8 бит
Тип развёртки : Чересстрочная
Порядок развёртки : Верхнее поле первое
Бит/(Пиксели*Кадры) : 0.174
Размер потока : 5,43 Гбайт (89%)
Основные цвета : BT.709
Характеристики трансфера : BT.709
Коэффициенты матрицы : BT.709
colour_range : Limited
Аудио #1
Идентификатор : 3022 (0xBCE)
Идентификатор меню : 1 (0x1)
Формат : MPEG Audio
Версия формата : Version 1
Профиль формата : Layer 2
Идентификатор кодека : 3
Продолжительность : 1 ч. 26 м.
Вид битрейта : Постоянный
Битрейт : 192 Кбит/сек
Каналы : 2 канала
Частота : 48,0 КГц
Метод сжатия : С потерями
Размер потока : 118 Мбайт (2%)
Язык : Russian
Аудио #2
Идентификатор : 3023 (0xBCF)
Идентификатор меню : 1 (0x1)
Формат : AC-3
Формат/Информация : Audio Coding 3
Расширение режима : CM (complete main)
Параметр Endianness формата : Big
Идентификатор кодека : 6
Продолжительность : 1 ч. 26 м.
Вид битрейта : Постоянный
Битрейт : 448 Кбит/сек
Каналы : 6 каналов
Расположение каналов : Front: L C R, Side: L R, LFE
Частота : 48,0 КГц
Битовая глубина : 16 бит
Метод сжатия : С потерями
Размер потока : 276 Мбайт (4%)
Язык : Russian-Общее
Идентификатор : 1 (0x1)
Полное имя : D:\Maria Wern\Maria Wern Först när givaren är död.ts
Формат : MPEG-TS
Размер файла : 6,13 Гбайт
Продолжительность : 1 ч. 26 м.
Режим общего битрейта : Переменный
Общий поток : 10,1 Мбит/сек
Видео
Идентификатор : 3021 (0xBCD)
Идентификатор меню : 1 (0x1)
Формат : AVC
Формат/Информация : Advanced Video Codec
Профиль формата : Main@L4.0
Параметр CABAC формата : Да
Параметр ReFrames формата : 3 кадра
Идентификатор кодека : 27
Продолжительность : 1 ч. 26 м.
Битрейт : 8982 Кбит/сек
Ширина : 1920 пикселей
Высота : 1080 пикселей
Соотношение сторон : 16:9
Частота кадров : 25,000 кадров/сек
Стандарт вещания : Component
Цветовое пространство : YUV
Субдискретизация насыщенности : 4:2:0
Битовая глубина : 8 бит
Тип развёртки : Чересстрочная
Порядок развёртки : Верхнее поле первое
Бит/(Пиксели*Кадры) : 0.173
Размер потока : 5,44 Гбайт (89%)
Основные цвета : BT.709
Характеристики трансфера : BT.709
Коэффициенты матрицы : BT.709
colour_range : Limited
Аудио #1
Идентификатор : 3022 (0xBCE)
Идентификатор меню : 1 (0x1)
Формат : MPEG Audio
Версия формата : Version 1
Профиль формата : Layer 2
Идентификатор кодека : 3
Продолжительность : 1 ч. 26 м.
Вид битрейта : Постоянный
Битрейт : 192 Кбит/сек
Каналы : 2 канала
Частота : 48,0 КГц
Метод сжатия : С потерями
Размер потока : 119 Мбайт (2%)
Язык : Russian
Аудио #2
Идентификатор : 3023 (0xBCF)
Идентификатор меню : 1 (0x1)
Формат : AC-3
Формат/Информация : Audio Coding 3
Расширение режима : CM (complete main)
Параметр Endianness формата : Big
Идентификатор кодека : 6
Продолжительность : 1 ч. 26 м.
Вид битрейта : Постоянный
Битрейт : 448 Кбит/сек
Каналы : 6 каналов
Расположение каналов : Front: L C R, Side: L R, LFE
Частота : 48,0 КГц
Битовая глубина : 16 бит
Метод сжатия : С потерями
Размер потока : 278 Мбайт (4%)
Язык : Russian

Скриншоты с названием фильма

Скриншоты

Вне форума [Профиль] [ЛС]
Похожие темы
Форум Тема Автор Торрент Отв. Посл. сообщение
./templates/default/images/folder_dl.gif Фантастика, фэнтези, ужасы, мистика Миры Марии Семеновой - Мария Семенова - Волкодав [2014, PDF/DjVu, RUS] Omen
1 | 0

0 | 504

7

2016-08-15 01:00
Omen Последнее
./templates/default/images/folder_dl.gif Фантастика, фэнтези, ужасы, мистика Андрей Круз, Мария Круз | Своя игра (2017) [FB2] }{@R0N
1 | 0

0 | 6122

8

2017-09-14 13:26
}{@R0N Последнее
Показать сообщения:    
Ответить на тему

Текущее время: Сегодня 22:51

Часовой пояс: GMT + 3



Вы не можете начинать темы
Вы не можете отвечать на сообщения
Вы не можете редактировать свои сообщения
Вы не можете удалять свои сообщения
Вы не можете голосовать в опросах
Вы не можете прикреплять файлы к сообщениям
Вы не можете скачивать файлы