Сегодня идет свободное скачивание без начисления Download

Не вижу зла: Болотные убийства / See no evil: The Moors murders / Сезон: 1 / Серии: 1-2 из 2 (Кристофер Менол / Christopher Menaul) [2006, триллер, криминал, драма, детектив, WEB-DLRip] VO (Project Web Mania)

Ответить на тему
 
Автор
Сообщение

Omen ®

Стаж: 5 лет 7 месяцев

Сообщений: 185412

Торрент-статистика

Пост 04-Июн-2016 15:00

[Цитировать]

Не вижу зла: Болотные убийства / See no evil: The Moors murders
Год выпуска: 2006
Страна: Великобритания
Жанр: триллер, криминал, драма, детектив
Продолжительность: 2х68 мин.
Перевод: Любительский (одноголосый закадровый) Project_Web_Mania
Режиссёр: Кристофер Менол / Christopher Menaul
В ролях: Джоанн Фроггатт, Максин Пик, Шон Харрис, Мэттью МакНалти, Джордж Костиган, Шарлотта Эммерсон, Джон Хеншоу, Джеймс Куинн, Стивен МакКенна, Стивен Хиллман
Описание: "Сюжет строится вокруг молодых родителей Дэвида и Морин Смит, у которых умерла шестимесячная дочь Анжела. Страдая, Морин Смит ищет поддержки у своей старшей сестры Майры, а Дэвид — у парня Майры, Иэна, не зная о их страшных преступлениях."
Сильная, наводящая на размышления драма, основанная на одном из самых шокирующих преступлений 20-го века в Британии . Это история детоубийц Иэна Брэйди и Майры Хиндли. Приговоренные за пытки и убийства пяти молодых людей к пожизненному заключению, Болотные убийцы остаются двумя самыми ненавистными людьми в Британии.
Награды : British Academy Television Award for Best Drama Serial at the 2007 ceremony.
Сэмпл: http://multi-up.com/1104394
Качество: WEB-DLRip
Формат: MKV
Видео: MPEG-4, 720х406, 16:9, 25.000 fps, 1 625 Kbps
Аудио: AC3, 192 Kbps, 48.0 KHz, 2 channels
Субтитры: отсутствуют

MediaInfo

01.season.Bolotnye.Ubistva.VO\01_serya_VO.mkv
Формат : Matroska
Версия формата : Version 2
Размер файла : 830 Мбайт
Продолжительность : 1 ч. 8 м.
Общий поток : 1686 Кбит/сек
Название фильма : https://vk.com/project_web_money
Дата кодирования : UTC 2015-11-01 07:18:16
Программа кодирования : mkvmerge v5.0.1 ('Es ist Sommer') built on Oct 9 2011 11:55:43
Библиотека кодирования : libebml v1.2.2 + libmatroska v1.3.0
Видео
Идентификатор : 1
Формат : MPEG-4 Visual
Параметр BVOP формата : Нет
Параметр QPel формата : Нет
Параметр GMC формата : Без точки перехода
Параметр матрицы формата : Default (H.263)
Идентификатор кодека : DIVX
Идентификатор кодека/Информация : Project Mayo
Идентификатор кодека/Подсказка : DivX 4
Продолжительность : 1 ч. 8 м.
Битрейт : 1460 Кбит/сек
Ширина : 720 пикс.
Высота : 406 пикс.
Соотношение сторон : 16:9
Режим частоты кадров : Постоянный
Частота кадров : 25,000 кадр/сек
Цветовое пространство : YUV
Подвыборка цветности : 4:2:0
Битовая глубина : 8 бит
Тип развёртки : Прогрессивная
Метод сжатия : С потерями
Бит/(Пиксели*Кадры) : 0.200
Размер потока : 719 Мбайт (87%)
Библиотека кодирования : Lavc54.79.100
Аудио
Идентификатор : 2
Формат : AC-3
Формат/Информация : Audio Coding 3
Расширение режима : CM (complete main)
Идентификатор кодека : A_AC3
Продолжительность : 1 ч. 8 м.
Вид битрейта : Постоянный
Битрейт : 192 Кбит/сек
Каналы : 2 канала
Расположение каналов : Front: L R
Частота : 48,0 КГц
Битовая глубина : 16 бит
Метод сжатия : С потерями
Размер потока : 94,5 Мбайт (11%)
Заголовок : VO_Project_Web_Money
Язык : Russian

Скриншоты

Вне форума [Профиль] [ЛС]
Показать сообщения:    
Ответить на тему

Текущее время: Сегодня 10:45

Часовой пояс: GMT + 3



Вы не можете начинать темы
Вы не можете отвечать на сообщения
Вы не можете редактировать свои сообщения
Вы не можете удалять свои сообщения
Вы не можете голосовать в опросах
Вы не можете прикреплять файлы к сообщениям
Вы не можете скачивать файлы