Сегодня идет свободное скачивание без начисления Download

Все еще открыто круглосуточно / Still open all hours / Сезон: 1 / Серии: 3 из 6 (Dewi Humphreys) [2013, Комедия, WEB-DLRip] Original + Rus Subs (dhreilly)

Ответить на тему
 
Автор
Сообщение

Omen ®

Стаж: 5 лет 9 месяцев

Сообщений: 184433

Торрент-статистика

Пост 03-Июн-2016 21:00

[Цитировать]

Все еще открыто круглосуточно / Still open all hours- Год выпуска: 2013
Страна: Великобритания
Жанр: Комедия
Продолжительность: 00:30:00
Перевод: Субтитры dhreilly
Режиссёр: Дьюи Хамфрис
В ролях: Девид Джейсон, Линда Бэрон, Стефани Коул, Джеймс Бакстер, Джонни Вегас-Описание: Грэнвиль — первоклассный старый скупердяй. Он управляет лавкой, которую унаследовал от дяди Аркрайта. Помогает ему в этом его сын Лерой, у которого обожательниц больше, чем было у Грэнвиля в молодые годы.-Доп. информация: На протяжении всего сезона идут отсылки к оригинальной версии сериала: заикание Аркрайта, велосипед, постоянные посетители вроде медсестры Глэдис и Черной Вдовы. Пониманию сюжета они нисколько не мешают, а людям оригинал смотревшим несомненно доставят удовольствие.--Сэмпл-Качество: WEB-DLRip
Формат: AVI
Видео: XviD, 720х416, 25.000 fps, 1 695 Kbps, 0.210 bit/pixel
Аудио: MP3, 48 kHz, 2 ch, 128 kbps
Субтитры: srt-

MediaInfo

Format : AVI
Format/Info : Audio Video Interleave
File size : 350 MiB
Duration : 28mn 51s
Overall bit rate : 1 695 Kbps
Writing application : VirtualDubMod 1.5.4.1 (build 2178/release)
Writing library : VirtualDubMod build 2178/release
Video
ID : 0
Format : MPEG-4 Visual
Format profile : Advanced Simple@L5
Format settings, BVOP : 1
Format settings, QPel : No
Format settings, GMC : No warppoints
Format settings, Matrix : Custom
Codec ID : XVID
Codec ID/Hint : XviD
Duration : 28mn 51s
Bit rate : 1 573 Kbps
Width : 720 pixels
Height : 416 pixels
Display aspect ratio : 16:9
Frame rate : 25.000 fps
Color space : YUV
Chroma subsampling : 4:2:0
Bit depth : 8 bits
Scan type : Progressive
Compression mode : Lossy
Bits/(Pixel*Frame) : 0.210
Stream size : 325 MiB (93%)
Writing library : XviD 1.2.1 (UTC 2008-12-04)
Audio
ID : 1
Format : MPEG Audio
Format version : Version 1
Format profile : Layer 3
Mode : Joint stereo
Mode extension : MS Stereo
Codec ID : 55
Codec ID/Hint : MP3
Duration : 28mn 51s
Bit rate mode : Variable
Bit rate : 109 Kbps
Nominal bit rate : 128 Kbps
Channel(s) : 2 channels
Sampling rate : 48.0 KHz
Compression mode : Lossy
Stream size : 22.5 MiB (6%)
Alignment : Aligned on interleaves
Interleave, duration : 24 ms (0.60 video frame)
Interleave, preload duration : 475 ms
Writing library : LAME3.98r
Encoding settings : -m j -V 4 -q 2 -lowpass 17 --abr 128

Скриншоты

Внимание! Раздача ведется путем добавления новых серий

Внимание! Раздача ведётся путём добавления новых серий; при каждом добавлении создаётся новый торрент. Чтобы начать докачку новой серии, пользователям необходимо сделать следующее:
(1) остановить скачивание,
(2) удалить старый торрент у себя из клиента (старые серии удалять не надо),
(3) скачать новый торрент и запустить его у себя в клиенте вместо старого, при этом указать клиенту путь в старую папку куда и должно происходить скачивание новых серий.
Ваш клиент при этом должен произвести хеширование (проверку) старой папки (если не производит сам - помогите ему сделать это), и будет докачивать только те серии которых у вас ещё нет. Старые серии при этом не удаляются, а продолжают раздаваться!
Eсли вы уже удалили старые серии, то предотвратить повторную закачку старых серий можно, отжав галочку в соответствующих местах при запуске нового торрента. По возможности, желательно не удалять старые серии как можно дольше чтобы релизёр не столько продолжал раздавать старые серии, а смог сконцентрироваться на новых.
Вне форума [Профиль] [ЛС]
Показать сообщения:    
Ответить на тему

Текущее время: Сегодня 03:13

Часовой пояс: GMT + 3



Вы не можете начинать темы
Вы не можете отвечать на сообщения
Вы не можете редактировать свои сообщения
Вы не можете удалять свои сообщения
Вы не можете голосовать в опросах
Вы не можете прикреплять файлы к сообщениям
Вы не можете скачивать файлы