Сегодня идет свободное скачивание без начисления Download

Ужасы интернета / Bad Internet / Сезон: 1 / Серии: 1 из 10 (Тим Уилкерсон / Tim Wilkerson) [2016, комедия, WEB-DL 2160p] DVO (Ozz) + Original + Subs (Rus, Eng)

Ответить на тему
 
Автор
Сообщение

Omen ®

Стаж: 5 лет 10 месяцев

Сообщений: 184329

Торрент-статистика

Пост 03-Июн-2016 18:33

[Цитировать]

Ужасы интернета - Первый сезонBad Internet - First Season- Год выпуска: 2016
Страна: США
Жанр: комедия, породия-Продолжительность: 00:15:00
Перевод: Профессиональный (многоголосый закадровый) Ozz
Режиссёр: Тим Уилкерсон / Tim Wilkerson
В ролях: Айрин Чой, Шери Отери, Ларри Ханкин, Джей Са Пак, Майкл Нотон, Дон Льюбби, Мелисса Хантер, Деймиан Вашингтон, Мэтью Дж. МакКарти, Шивон Томпсон, Джордр Лью, Сьюзан Чуанг, Роб Ян, Джеймс Герда, Зак Ояма, Элиот Шварц, Грант О'Брайен, Маркиз Рей и др.-Описание: Новый проект от коллективного разума, подарившего нам сериал «Адам портит всё» — «Ужасы интернета» является пародией на технологические антиутопии вроде «Черного зеркала» и повествует о наихудших вариантах развития событий при использовании интернета.- -Sample-
Роли озвучивают: Ирина Воронова и Алексей Серегин
Перевод: Trotteville
Подготовлено: Ozz-Качество: WEB-DL 4K
Формат: MKV
Видео: x264, 3840x2160 (16:9), 23.976 fps, ~11600 kbps
Аудио #1: Russian 48.0 KHz, AС3, 2 channels, 192 Kbps |Ozz|
Аудио #2: English 48.0 KHz, AС3, 2 channels, 192 Kbps |Original|
Субтитры: русские (Trotteville), английские-

MediaInfo

General
Unique ID : 251058267196285285484752964802050992170 (0xBCE0103EC764F4D29C96FDE370CF282A)
Complete name : C:\Сериалы\Bad.Internet.S01.4K.UHD.Rus.Eng.Ozz\Bad.Internet.S01E01.4K.UHD.Rus.Eng.Ozz.mkv
Format : Matroska
Format version : Version 4 / Version 2
File size : 1.02 GiB
Duration : 11mn 55s
Overall bit rate : 12.2 Mbps
Movie name : Ужасы интернета | Bad Internet (S01E01) - Release by Ozz
Encoded date : UTC 2016-06-03 13:26:01
Writing application : mkvmerge v6.1.0 ('Old Devil') built on Mar 4 2013 09:10:42
Writing library : libebml v1.3.0 + libmatroska v1.4.0
Video
ID : 1
Format : AVC
Format/Info : Advanced Video Codec
Format profile : High@L5.1
Format settings, CABAC : No
Format settings, ReFrames : 2 frames
Codec ID : V_MPEG4/ISO/AVC
Duration : 11mn 55s
Bit rate : 11.6 Mbps
Width : 3 840 pixels
Height : 2 160 pixels
Display aspect ratio : 16:9
Frame rate mode : Constant
Frame rate : 23.976 fps
Color space : YUV
Chroma subsampling : 4:2:0
Bit depth : 8 bits
Scan type : Progressive
Bits/(Pixel*Frame) : 0.058
Stream size : 987 MiB (95%)
Language : English
Default : Yes
Forced : No
Color range : Limited
Color primaries : BT.709
Transfer characteristics : BT.709
Matrix coefficients : BT.709
Audio #1
ID : 2
Format : AC-3
Format/Info : Audio Coding 3
Mode extension : CM (complete main)
Format settings, Endianness : Big
Codec ID : A_AC3
Duration : 11mn 55s
Bit rate mode : Constant
Bit rate : 192 Kbps
Channel(s) : 2 channels
Channel positions : Front: L R
Sampling rate : 48.0 KHz
Compression mode : Lossy
Stream size : 16.4 MiB (2%)
Title : DVO (Ozz)
Language : Russian
Default : Yes
Forced : No
Audio #2
ID : 3
Format : AC-3
Format/Info : Audio Coding 3
Mode extension : CM (complete main)
Format settings, Endianness : Big
Codec ID : A_AC3
Duration : 11mn 55s
Bit rate mode : Constant
Bit rate : 192 Kbps
Channel(s) : 2 channels
Channel positions : Front: L R
Sampling rate : 48.0 KHz
Compression mode : Lossy
Stream size : 16.4 MiB (2%)
Language : English
Default : No
Forced : No
Text #1
ID : 4
Format : UTF-8
Codec ID : S_TEXT/UTF8
Codec ID/Info : UTF-8 Plain Text
Title : Trotteville
Language : Russian
Default : No
Forced : No
Text #2
ID : 5
Format : UTF-8
Codec ID : S_TEXT/UTF8
Codec ID/Info : UTF-8 Plain Text
Language : English
Default : No
Forced : No

Скриншоты

Внимание! Раздача ведётся путём добавления новых серий

Внимание! Раздача ведётся путём добавления новых серий; при каждом добавлении создаётся новый торрент. Чтобы начать докачку новой серии, пользователям необходимо сделать следующее:
(1) остановить скачивание,
(2) удалить старый торрент у себя из клиента (старые серии удалять не надо),
(3) скачать новый торрент и запустить его у себя в клиенте вместо старого, при этом указать клиенту путь в старую папку куда и должно происходить скачивание новых серий.
Ваш клиент при этом должен произвести хеширование (проверку) старой папки (если не производит сам - помогите ему сделать это), и будет докачивать только те серии которых у вас ещё нет. Старые серии при этом не удаляются, а продолжают раздаваться!
Eсли вы уже удалили старые серии, то предотвратить повторную закачку старых серий можно, отжав галочку в соответствующих местах при запуске нового торрента. По возможности, желательно не удалять старые серии как можно дольше чтобы релизёр не столько продолжал раздавать старые серии, а смог сконцентрироваться на новых.
-
Вне форума [Профиль] [ЛС]
Похожие темы
Форум Тема Автор Торрент Отв. Посл. сообщение
./templates/default/images/folder_dl.gif Зарубежное кино Паранормальное явление 5: Призраки / Paranormal Activity: The Ghost Dimension (Грегори Плоткин / Gregory Plotkin) [2015, США, Ужасы, BDRip 1080p] [Театральная версия] Dub + Sub Rus, Eng + Original Eng Omen
1 | 0

0 | 487

7

2016-02-11 00:33
Omen Последнее
./templates/default/images/folder_dl.gif Новинки (HD|DVD|BD|WEB|TV|SAT|PDTV|-Rip) Русалка. Озеро мертвых (Святослав Подгаевский) [2018, Фэнтези, ужасы, WEB-DLRip] | iTunes Theseus
1 | 0

0 | 294

6

2018-08-14 13:17
Theseus Последнее
./templates/default/images/folder_dl.gif Новинки (BD|HDTV|DVD) Русалка. Озеро мертвых (Святослав Подгаевский) [2018, Фэнтези, ужасы, WEB-DL 1080p] | iTunes Theseus
1 | 0

0 | 339

7

2018-08-14 13:37
Theseus Последнее
Показать сообщения:    
Ответить на тему

Текущее время: Сегодня 14:44

Часовой пояс: GMT + 3



Вы не можете начинать темы
Вы не можете отвечать на сообщения
Вы не можете редактировать свои сообщения
Вы не можете удалять свои сообщения
Вы не можете голосовать в опросах
Вы не можете прикреплять файлы к сообщениям
Вы не можете скачивать файлы