Сегодня идет свободное скачивание без начисления Download

Неоновый всадник / Neon rider / Сезон: 1 / Серии: 0-3 из 25 (Bruce Pittman) [1989-1990, Драма, VHSRip] DVO (Фортуна-фильм (ТВ6))

Ответить на тему
 
Автор
Сообщение

Omen ®

Стаж: 5 лет 9 месяцев

Сообщений: 184402

Торрент-статистика

Пост 03-Июн-2016 00:00

[Цитировать]

Неоновый всадник / Neon rider
Год выпуска: 1989-1990
Страна: Канада
Жанр: Драма
Продолжительность: ~00:46:00
Перевод: Профессиональный (двухголосый закадровый) Фортуна-фильм / ТВ6
Режиссёр: Bruce Pittman
В ролях: Уинстон Рекерт, Сэм Саркар, Уильям С. Тейлор, Питер Уильямс-Описание: Майкл Терри — популярный писатель. Уставший от своей известности, он решает немного отдохнуть от всего и пожить за городом. Там ему приходит идея, использовать своё ранчо как приют для трудных подростков, где они будут жить, работать и постигать значение честности и дружбы.-Данный релиз представляет собой трёхчасовую оцифрованную видеокассету, записанную с телеканала ТВ6 и порезанную на соответствующие серии-Благодарность за предоставление раритетного материала выражается: Sp1end1d-Сэмпл
Качество: VHSRip
Формат: MPEG-PS
Видео: MPEG-2 Video | 720x576 | 25.000 fps | 5 459 Kbps | 0.527 bit/pixel
Аудио: MP2 | 48.0 KHz | 2.0 ch | 192 Kbps
Субтитры: отсутствуют

Список серий

1x00a Dude (part 1) - пилотная
1x00b Dude (part 2) - пилотная (продолжение)
1x02 Hardcase
1x03 Devil's Child

MediaInfo

ОбщееПолное имя : ...TV\Neon rider\1x02 Hardcase {ТВ6} {VHS} [ФОРТУНА-ФИЛЬМ] {Sp1end1d}.mpgФормат : MPEG-PSРазмер файла : 1,87 ГбайтПродолжительность : 46 м.Режим общего битрейта : ПеременныйОбщий поток : 5766 Кбит/сек
ВидеоИдентификатор : 224 (0xE0)Формат : MPEG VideoВерсия формата : Version 2Профиль формата : Main@MainПараметр BVOP формата : ДаПараметр матрицы формата: По умолчаниюПродолжительность : 46 м.Вид битрейта : ПеременныйБитрейт : 5459 Кбит/секМаксимальный битрейт : 7500 Кбит/секШирина : 720 пикс.Высота : 576 пикс.Соотношение сторон : 4:3Частота кадров : 25,000 кадр/секСтандарт вещания : PALЦветовое пространство : YUVПодвыборка цветности : 4:2:0Битовая глубина : 8 битТип развёртки : ПрогрессивнаяМетод сжатия : С потерямиБит/(Пиксели*Кадры) : 0.527Размер потока : 1,77 Гбайт (95%)Основные цвета : BT.601 PALХарактеристики трансфера: BT.470 System B, BT.470 System GКоэффициенты матрицы : BT.601
АудиоИдентификатор : 192 (0xC0)Формат : MPEG AudioВерсия формата : Version 1Профиль формата : Layer 2Продолжительность : 46 м.Вид битрейта : ПостоянныйБитрейт : 192 Кбит/секКаналы : 2 каналаЧастота : 48,0 КГцМетод сжатия : С потерямиРазмер потока : 63,6 Мбайт (3%)

Вне форума [Профиль] [ЛС]
Показать сообщения:    
Ответить на тему

Текущее время: Сегодня 20:25

Часовой пояс: GMT + 3



Вы не можете начинать темы
Вы не можете отвечать на сообщения
Вы не можете редактировать свои сообщения
Вы не можете удалять свои сообщения
Вы не можете голосовать в опросах
Вы не можете прикреплять файлы к сообщениям
Вы не можете скачивать файлы