Сегодня идет свободное скачивание без начисления Download

Мария Верн / Maria Wern / Сезон: 3 / Серии: 1-2 из 2 (Эрик Лейжонборг / Erik Leijonborg) [2013, криминал, HDTVRip] MVO

Ответить на тему
 
Автор
Сообщение

Omen ®

Стаж: 5 лет 11 месяцев

Сообщений: 184329

Торрент-статистика

Пост 02-Июн-2016 21:00

[Цитировать]

Мария Верн: Мечта привела вас в заблуждение / Мария Верн: Заблудившийся во снах / Maria Wern: Drömmen förde dig vilse
Год выпуска: 2013
Страна: Швеция
Жанр: криминал
Продолжительность: 01:26:16
Перевод: Профессиональный (многоголосый закадровый) /Русский репортаж/
Режиссёр: Эрик Лейжонборг / Erik Leijonborg
В ролях: Эва Рёзе, Аллан Свенссон, Эрик Йоханссон, Петер Перски, Ульф Фриберг, Таня Лорентцон, Оскар Петтерссон, Matilda Wännström, Emma Melkersson, Йозефина Альханко
Описание: Какие причины могут быть для убийства обычной женщины? Неверность мужу? А может быть явная и открытая нелюбовь к секс меньшинствам? Именно между этими двумя причинами убийства приходится строить своё расследование Марии Верн. Девушка расследует убийство женщины, чьё тело нашли в окрестностях одного города. И только Мария находит более менее адекватный путь расследования, так сразу совершается другое преступление, которое абсолютно не вяжется с предпологаемым мотивом, но явно связано с предыдущей жертвой. А за ним ещё и ещё убийства. Мария ищет убийцу, а возможно, и нескольких преступников.

Сэмпл: http://sendfile.su/1239346
Качество: HDTVRip
Формат: AVI
Видео: 720x400 (16:9), 25 fps, XviD, ~2226 kbps avg, 0.270 bit/pixel
Аудио: [Русский] AC3, 48 kHz, 2 ch, 192 kbps
Субтитры: отсутствуют

MediaInfo

Общее
Полное имя : C:\Users\User\Desktop\Maria Wern\Maria Wern Drömmen förde dig vilse.avi
Формат : AVI
Формат/Информация : Audio Video Interleave
Размер файла : 1,46 Гбайт
Продолжительность : 1 ч. 26 м.
Общий поток : 2427 Кбит/сек
Программа кодирования : VirtualDubMod 1.5.10.3 | www.virtualdub-fr.org || (build 2550/release)
Библиотека кодирования : VirtualDubMod build 2550/release
Видео
Идентификатор : 0
Формат : MPEG-4 Visual
Профиль формата : Advanced Simple@L5
Параметр BVOP формата : 1
Параметр QPel формата : Нет
Параметр GMC формата : Без точки перехода
Параметр матрицы формата : Default (MPEG)
Идентификатор кодека : XVID
Идентификатор кодека/Подсказка : XviD
Продолжительность : 1 ч. 26 м.
Битрейт : 2226 Кбит/сек
Ширина : 720 пикселей
Высота : 400 пикселей
Соотношение сторон : 16:9
Частота кадров : 25,000 кадров/сек
Цветовое пространство : YUV
Субдискретизация насыщенности : 4:2:0
Битовая глубина : 8 бит
Тип развёртки : Прогрессивная
Метод сжатия : С потерями
Бит/(Пиксели*Кадры) : 0.270
Размер потока : 1,34 Гбайт (92%)
Библиотека кодирования : XviD 1.2.1 (UTC 2008-12-04)
Аудио
Идентификатор : 1
Формат : AC-3
Формат/Информация : Audio Coding 3
Расширение режима : CM (complete main)
Параметр Endianness формата : Big
Идентификатор кодека : 2000
Продолжительность : 1 ч. 26 м.
Вид битрейта : Постоянный
Битрейт : 192 Кбит/сек
Каналы : 2 канала
Расположение каналов : Front: L R
Частота : 48,0 КГц
Битовая глубина : 16 бит
Метод сжатия : С потерями
Размер потока : 118 Мбайт (8%)
Выравнивание : Разделение по промежуткам
Продолжительность промежутка : 40 мс. (1,00 видеокадр)
Время предзагрузки промежутка : 500 мс.

Скриншоты с названием фильма

Скриншоты

-Мария Верн: Пока не умер донор / Мария Верн: Увековеченная смерть / Maria Wern: Drömmen förde dig vilse
Год выпуска: 2013
Страна: Швеция
Жанр: криминал
Продолжительность: 01:26:41
Перевод: Профессиональный (многоголосый закадровый) /Русский репортаж/
Режиссёр: Эрик Лейжонборг / Erik Leijonborg
В ролях: Эва Рёзе, Аллан Свенссон, Эрик Йоханссон, Петер Перски, Ульф Фриберг, Таня Лорентцон, Оскар Петтерссон, Matilda Wännström, Emma Melkersson, Йозефина Альханко
Описание: Мария Верн - сильная женщина, и к тому же, полицейский детектив. Судьба её весьма нелегка, но она не отчаивается и продолжает заниматься любимым делом - расследованиями.

Сэмпл: http://sendfile.su/1239344
Качество: HDTVRip
Формат: AVI
Видео: 720x400 (16:9), 25 fps, XviD, ~2214 kbps avg, 0.280 bit/pixel
Аудио: [Русский] AC3, 48 kHz, 2 ch, 192 kbps
Субтитры: отсутствуют

MediaInfo

Общее
Полное имя : C:\Users\User\Desktop\Maria Wern\Maria Wern Först när givaren är död.avi
Формат : AVI
Формат/Информация : Audio Video Interleave
Размер файла : 1,46 Гбайт
Продолжительность : 1 ч. 26 м.
Общий поток : 2415 Кбит/сек
Программа кодирования : VirtualDubMod 1.5.10.3 | www.virtualdub-fr.org || (build 2550/release)
Библиотека кодирования : VirtualDubMod build 2550/release
Видео
Идентификатор : 0
Формат : MPEG-4 Visual
Профиль формата : Advanced Simple@L5
Параметр BVOP формата : 1
Параметр QPel формата : Нет
Параметр GMC формата : Без точки перехода
Параметр матрицы формата : Default (MPEG)
Идентификатор кодека : XVID
Идентификатор кодека/Подсказка : XviD
Продолжительность : 1 ч. 26 м.
Битрейт : 2214 Кбит/сек
Ширина : 720 пикселей
Высота : 400 пикселей
Соотношение сторон : 16:9
Частота кадров : 25,000 кадров/сек
Цветовое пространство : YUV
Субдискретизация насыщенности : 4:2:0
Битовая глубина : 8 бит
Тип развёртки : Прогрессивная
Метод сжатия : С потерями
Бит/(Пиксели*Кадры) : 0.280
Размер потока : 1,34 Гбайт (92%)
Библиотека кодирования : XviD 1.2.1 (UTC 2008-12-04)
Аудио
Идентификатор : 1
Формат : AC-3
Формат/Информация : Audio Coding 3
Расширение режима : CM (complete main)
Параметр Endianness формата : Big
Идентификатор кодека : 2000
Продолжительность : 1 ч. 26 м.
Вид битрейта : Постоянный
Битрейт : 192 Кбит/сек
Каналы : 2 канала
Расположение каналов : Front: L R
Частота : 48,0 КГц
Битовая глубина : 16 бит
Метод сжатия : С потерями
Размер потока : 119 Мбайт (8%)
Выравнивание : Разделение по промежуткам
Продолжительность промежутка : 40 мс. (1,00 видеокадр)
Время предзагрузки промежутка : 500 мс.

Скриншоты с названием фильма

Скриншоты

Вне форума [Профиль] [ЛС]
Показать сообщения:    
Ответить на тему

Текущее время: Сегодня 11:51

Часовой пояс: GMT + 3



Вы не можете начинать темы
Вы не можете отвечать на сообщения
Вы не можете редактировать свои сообщения
Вы не можете удалять свои сообщения
Вы не можете голосовать в опросах
Вы не можете прикреплять файлы к сообщениям
Вы не можете скачивать файлы