Сегодня идет свободное скачивание без начисления Download

Смертельный яд / Загадочная смерть / Strong Poison / Сезон: 1 / Серии: 1-3 из 3 (Кристофер Ходсон) [1987, детектив, экранизация, DVDRip] VO (Project Web Mania)

Ответить на тему
 
Автор
Сообщение

Omen ®

Стаж: 5 лет 11 месяцев

Сообщений: 184329

Торрент-статистика

Пост 02-Июн-2016 00:00

[Цитировать]

Смертельный яд / Загадочная смерть / Strong Poison
Год выпуска: 1987
Страна: Великобритания
Жанр: детектив, экранизация
Продолжительность: 3x52 мин
Перевод: Любительский (одноголосый закадровый) Project_Web_Mania по переводу Okline, marina77eliseeva
Режиссёр: Кристофер Ходсон
В ролях: Харриет Уолтер, Эдвард Петербридж, Ричард Морант, Роуэна Купер, Рэй Армстронг, Майкл Тротон, Саймон Кафф, Артур Кокс, Майкл Хит, Шила Баррелл.
Описание: Известный писатель Филипп Бойз скончался от отравления мышьяком. Полиция не сомневается, что это убийство совершила бывшая подруга мужчины Харриет Вейн, тоже писательница. Все указывает на ее вину, даже то, что в тот момент она писала книгу об отравлении мышьяком. Никто не сомневается, что суд признает Харриет виновной, даже она сама. Несмотря на то, что все выглядит очень убедительно и неопровержимо, Питер Уимзи знает, что девушка невиновна. Но кто же, если не она?
Шестой фильм из цикла Lord Peter Wimsey | Лорд Питер Уимзи (1987)
Сэмпл: http://multi-up.com/1068176
Качество: DVDRip
Формат: AVI
Видео: 720x480(3:2), 25.000 fps,1458 Кбит/сек Кбит/сек
Аудио: AC3, 192 Kbps, 48.0 KHz, 2 channels VO_Project_Web_Mania
Субтитры: отсутствуют

MediaInfo

06.Lord.Smertelnyi.Yad.VO\01_serya_VO.avi
Формат : AVI
Формат/Информация : Audio Video Interleave
Размер файла : 564 Мбайт
Продолжительность : 52 м.
Общий поток : 1515 Кбит/сек
Программа кодирования : VirtualDubModRus 1.5.10.2 (build 2542/release)
Библиотека кодирования : VirtualDubMod build 2542/release
Видео
Идентификатор : 0
Формат : mp43
Идентификатор кодека : mp43
Продолжительность : 52 м.
Битрейт : 1313 Кбит/сек
Ширина : 720 пикс.
Высота : 480 пикс.
Соотношение сторон : 3:2
Частота кадров : 25,000 кадр/сек
Стандарт вещания : NTSC
Бит/(Пиксели*Кадры) : 0.152
Размер потока : 489 Мбайт (87%)
Аудио
Идентификатор : 1
Формат : AC-3
Формат/Информация : Audio Coding 3
Расширение режима : CM (complete main)
Идентификатор кодека : 2000
Продолжительность : 52 м.
Вид битрейта : Постоянный
Битрейт : 192 Кбит/сек
Каналы : 2 канала
Расположение каналов : Front: L R
Частота : 48,0 КГц
Битовая глубина : 16 бит
Метод сжатия : С потерями
Размер потока : 71,5 Мбайт (13%)
Выравнивание : Разделение по промежуткам
Продолжительность промежутка : 40 мс. (1,00 видеокадр)
Время предзагрузки промежутка : 500 ms

Скриншоты

Вне форума [Профиль] [ЛС]
Похожие темы
Форум Тема Автор Торрент Отв. Посл. сообщение
./templates/default/images/folder_dl.gif Зарубежное кино Шоссе смерти / Highwaymen (Роберт Хармон / Robert Harmon) [2004, США, Канада, боевик, триллер, криминал, WEB-DL 720p] 3x DVO + Sub Rus, Eng + Original Eng Omen
1 | 0

1 | 1208

11

2015-06-06 08:17
Dracula Последнее
./templates/default/images/folder_dl.gif Новинки (CamRip|TS) Бегущий в лабиринте: Лекарство от смерти / Maze Runner: The Death Cure (Уэс Болл) [2018 г., фантастика, боевик, триллер, TS 720p] DUB Theseus
1 | 0

0 | 1919

9

2018-02-08 18:04
Theseus Последнее
Показать сообщения:    
Ответить на тему

Текущее время: Сегодня 07:11

Часовой пояс: GMT + 3



Вы не можете начинать темы
Вы не можете отвечать на сообщения
Вы не можете редактировать свои сообщения
Вы не можете удалять свои сообщения
Вы не можете голосовать в опросах
Вы не можете прикреплять файлы к сообщениям
Вы не можете скачивать файлы