Сегодня идет свободное скачивание без начисления Download

Игра Престолов / Game Of Thrones / Сезон: 2 / Серии: 1-10 из 10 (Алан Тейлор, Дэвид Петрарка, Дэвид Наттер, Нил Маршалл) [2012, Фэнтези, драма, приключения, DVD9 (Custom)] MVO (AlexFilm) + Dub (REN-TV) + Original

Ответить на тему
 
Автор
Сообщение

Omen ®

Стаж: 5 лет 11 месяцев

Сообщений: 184329

Торрент-статистика

Пост 01-Июн-2016 12:00

[Цитировать]

Игра Престолов / Game Of Thrones
Год выпуска: 2012
Страна: США, Великобритания
Жанр: Фэнтези, драма, приключения
Продолжительность: ~ 580
Перевод: Профессиональный (многоголосый закадровый)
Перевод 2: Профессиональный (дублированный)
Режиссёр: Алан Тейлор, Дэвид Петрарка, Дэвид Наттер, Нил Маршалл
В ролях: Николай Костер-Валдау, Лина Хиди, Иэн Глен, Питер Динклэйдж, Эмилия Кларк, Мишель Фэйрли, Эйден Гиллен, Кит Харингтон, Лиам Каннингам, Альфи Аллен
Описание: В Вестеросе наступила осень — предвестник долгой зимы, когда Белые ходоки пробудятся ото сна. Но Стена и её защитники позабыты: три короля претендуют на Железный трон и два верховных лорда провозгласили себя королями над своими землями. Никто из них не желает заключить союзы, и каждый считает свое право на трон священным. И воцарился над миром кровавый хаос войны. И началась великая битва, в которой наградою победителю станет Железный Трон Семи Королевств. Страшные настали времена — времена отваги и отмщения, интриги и магии. Ныне дева повстречает безумца, а брат занесет меч на брата. Ныне убитые восстанут — и пойдут тропою Тьмы. Ныне вонзится холодная сталь в холодные сердца. Ныне грядет предначертанная пророчеством битва Королей… Экранизация по произведению: Джордж Р.Р. Мартин.
Доп. информация: Видео сжато в 3 проходов с помощью программы CCE CP3, VBR. индексатор - DGAVCIndex
Меню самодел. Фоновые картинки взяты из сети, обработаны в фотошопе,собрано в DVD-lab PRO 2.

Список серий

Диск1:
01. Север помнит / The North Remembers
02. Ночные земли / The Night Lands
Диск2:
04. Костяной Сад / Garden of Bones
05. Призрак Харренхола / The Ghost of Harrenhal
Диск3:
05. Призрак Харренхола / The Ghost of Harrenhal
06. Старые Боги и Новые / The Old Gods and the New
Диск4:
07. Человек без Чести / A Man Without Honor
08. Принц Винтерфелла / The Prince of Winterfel
Диск5:
09. Черноводная / Blackwater
10. Валар Моргулис / Valar Morghulis
Источник видео: Blu-ray скаченный в сети. Спасибо vargvikernas

Используемый, при изготовлении релиза, софт

видео
CCE CP3 - конвертация видео
AviSynth 2.5 - обработка видео
DGAVCIndex - индексирование
программы для разборки
HdBrStreamExtractor - разборка Blu-ray
работа со звуком
Tranzcode - разборка звуковой дорожки на WAV
Sonic Foundry Soft Encode - сборка АС3- 384kbps
Реавторинг
DVD собран в DVD-lab PRO 2.

Скрипт

LoadPlugin("C:/Program Files/DGAVCDecode/DGAVCDecode.dll")
AVCSource("project.dga", deblock=false)#
#AVCSource("project.dga")#
#Crop(0,0,0,-2) #
#ConvertToYUY2()
LoadPlugin("C:/Program Files/AutoYUY2/AutoYUY2.dll")#
AutoYUY2()
#Coloryuv(analyze=true)#
LoadPlugin("C:/Program Files/ColorMatrix/ColorMatrix.dll")
ColorMatrix(mode="Rec.709->Rec.601",inputFR=false, clamp=0)#
#ColorMatrix(mode="Rec.709->Rec.601",inputFR=true,clamp=0)#
AssumeFPS("ntsc_film")
BicubicResize(720,480,0,0.5)#
AddBorders(0,0,0,0)#

Скриншоты программ

Качество: DVD9 (Custom)
Формат: DVD-Video
Видео: NTSC 16:9 (720x480) VBR Auto Letterboxed, 7197 Кбит/сек, Бит(Пиксели*Кадры): 0.869
Аудио: русский AC3, 3/2ch, 384Kbps DD 5.1(многоголосый)
Аудио 2: русский АС3, 2 ch, 384 Кбит/с - дублированный (REN-TV)
Аудио 3: английский AC3, 3/2ch, 384Kbps DD 5.1
Субтитры: русские,русские на датрокийский и валерийский, английские

Скриншоты меню (подобные меню присутствуют на всех дисках)

Диск 1. Скриншоты фильма, сэмпл,точка перехода, Медиаинфо.


СЕМПЛ

Медиаинфо.

Общее
Полное имя : E:\Video\Game Of Thrones- SO II- (DVD9)\disk 1\VIDEO_TS\VTS_01_1.VOB
Формат : MPEG-PS
Размер файла : 1000 Мбайт
Продолжительность : 16 м.
Режим общего битрейта : Переменный
Общий поток : 8519 Кбит/сек
Видео
Идентификатор : 224 (0xE0)
Формат : MPEG Video
Версия формата : Version 2
Профиль формата : Main@Main
Параметр BVOP формата : Да
Параметр матрицы формата : Выборочная
Параметр GOP формата : Variable
Продолжительность : 16 м.
Вид битрейта : Переменный
Битрейт : 7197 Кбит/сек
Максимальный битрейт : 9800 Кбит/сек
Ширина : 720 пикселей
Высота : 480 пикселей
Соотношение сторон : 16:9
Частота кадров : 23,976 кадра/сек
Стандарт вещания : NTSC
Цветовое пространство : YUV
Субдискретизация насыщенности : 4:2:0
Битовая глубина : 8 бит
Тип развёртки : Прогрессивная
Порядок развёртки : 2:3 Pulldown
Метод сжатия : С потерями
Бит/(Пиксели*Кадры) : 0.869
Временной код первого кадра : 01:00:00:00
Оригинал временного кода : Group of pictures header
Размер потока : 845 Мбайт (84%)
Аудио #1
Идентификатор : 189 (0xBD)-128 (0x80)
Формат : AC-3
Формат/Информация : Audio Coding 3
Расширение режима : CM (complete main)
Параметр Endianness формата : Big
Режим смешивания : DVD-Video
Продолжительность : 16 м.
Вид битрейта : Постоянный
Битрейт : 384 Кбит/сек
Каналы : 6 каналов
Расположение каналов : Front: L C R, Side: L R, LFE
Частота : 48,0 КГц
Битовая глубина : 16 бит
Метод сжатия : С потерями
Размер потока : 45,1 Мбайт (5%)
Аудио #2
Идентификатор : 189 (0xBD)-129 (0x81)
Формат : AC-3
Формат/Информация : Audio Coding 3
Расширение режима : CM (complete main)
Параметр Endianness формата : Big
Режим смешивания : DVD-Video
Продолжительность : 16 м.
Вид битрейта : Постоянный
Битрейт : 384 Кбит/сек
Каналы : 6 каналов
Расположение каналов : Front: L C R, Side: L R, LFE
Частота : 48,0 КГц
Битовая глубина : 16 бит
Метод сжатия : С потерями
Размер потока : 45,1 Мбайт (5%)
Аудио #3
Идентификатор : 189 (0xBD)-130 (0x82)
Формат : AC-3
Формат/Информация : Audio Coding 3
Расширение режима : CM (complete main)
Параметр Endianness формата : Big
Режим смешивания : DVD-Video
Продолжительность : 16 м.
Вид битрейта : Постоянный
Битрейт : 384 Кбит/сек
Каналы : 6 каналов
Расположение каналов : Front: L C R, Side: L R, LFE
Частота : 48,0 КГц
Битовая глубина : 16 бит
Метод сжатия : С потерями
Размер потока : 45,1 Мбайт (5%)
Текст #1
Идентификатор : 189 (0xBD)-32 (0x20)
Формат : RLE
Формат/Информация : Run-length encoding
Режим смешивания : DVD-Video
Текст #2
Идентификатор : 189 (0xBD)-33 (0x21)
Формат : RLE
Формат/Информация : Run-length encoding
Режим смешивания : DVD-Video
Меню

Диск 2. Скриншоты фильма, сэмпл,точка перехода, Медиаинфо.


СЕМПЛ

Медиаинфо.

Общее
Полное имя : E:\Video\Game Of Thrones- SO II- (DVD9)\disk 2\VIDEO_TS\VTS_01_1.VOB
Формат : MPEG-PS
Размер файла : 1001 Мбайт
Продолжительность : 15 м.
Режим общего битрейта : Переменный
Общий поток : 9018 Кбит/сек
Видео
Идентификатор : 224 (0xE0)
Формат : MPEG Video
Версия формата : Version 2
Профиль формата : Main@Main
Параметр BVOP формата : Да
Параметр матрицы формата : Выборочная
Параметр GOP формата : Variable
Продолжительность : 15 м.
Вид битрейта : Переменный
Битрейт : 7686 Кбит/сек
Максимальный битрейт : 9800 Кбит/сек
Ширина : 720 пикселей
Высота : 480 пикселей
Соотношение сторон : 16:9
Частота кадров : 23,976 кадра/сек
Стандарт вещания : NTSC
Цветовое пространство : YUV
Субдискретизация насыщенности : 4:2:0
Битовая глубина : 8 бит
Тип развёртки : Прогрессивная
Порядок развёртки : 2:3 Pulldown
Метод сжатия : С потерями
Бит/(Пиксели*Кадры) : 0.928
Временной код первого кадра : 01:00:00:00
Оригинал временного кода : Group of pictures header
Размер потока : 853 Мбайт (85%)
Аудио #1
Идентификатор : 189 (0xBD)-128 (0x80)
Формат : AC-3
Формат/Информация : Audio Coding 3
Расширение режима : CM (complete main)
Параметр Endianness формата : Big
Режим смешивания : DVD-Video
Продолжительность : 15 м.
Вид битрейта : Постоянный
Битрейт : 384 Кбит/сек
Каналы : 6 каналов
Расположение каналов : Front: L C R, Side: L R, LFE
Частота : 48,0 КГц
Битовая глубина : 16 бит
Метод сжатия : С потерями
Размер потока : 42,6 Мбайт (4%)
Аудио #2
Идентификатор : 189 (0xBD)-129 (0x81)
Формат : AC-3
Формат/Информация : Audio Coding 3
Расширение режима : CM (complete main)
Параметр Endianness формата : Big
Режим смешивания : DVD-Video
Продолжительность : 15 м.
Вид битрейта : Постоянный
Битрейт : 384 Кбит/сек
Каналы : 6 каналов
Расположение каналов : Front: L C R, Side: L R, LFE
Частота : 48,0 КГц
Битовая глубина : 16 бит
Метод сжатия : С потерями
Размер потока : 42,6 Мбайт (4%)
Аудио #3
Идентификатор : 189 (0xBD)-130 (0x82)
Формат : AC-3
Формат/Информация : Audio Coding 3
Расширение режима : CM (complete main)
Параметр Endianness формата : Big
Режим смешивания : DVD-Video
Продолжительность : 15 м.
Вид битрейта : Постоянный
Битрейт : 384 Кбит/сек
Каналы : 6 каналов
Расположение каналов : Front: L C R, Side: L R, LFE
Частота : 48,0 КГц
Битовая глубина : 16 бит
Метод сжатия : С потерями
Размер потока : 42,6 Мбайт (4%)
Текст #1
Идентификатор : 189 (0xBD)-32 (0x20)
Формат : RLE
Формат/Информация : Run-length encoding
Режим смешивания : DVD-Video
Текст #2
Идентификатор : 189 (0xBD)-33 (0x21)
Формат : RLE
Формат/Информация : Run-length encoding
Режим смешивания : DVD-Video
Меню

Диск 3. Скриншоты фильма, сэмпл,точка перехода, Медиаинфо.


СЕМПЛ

Медиаинфо.

Общее
Полное имя : E:\Video\Game Of Thrones- SO II- (DVD9)\disk 3\VIDEO_TS\VTS_01_1.VOB
Формат : MPEG-PS
Размер файла : 1000 Мбайт
Продолжительность : 15 м.
Режим общего битрейта : Переменный
Общий поток : 9227 Кбит/сек
Видео
Идентификатор : 224 (0xE0)
Формат : MPEG Video
Версия формата : Version 2
Профиль формата : Main@Main
Параметр BVOP формата : Да
Параметр матрицы формата : Выборочная
Параметр GOP формата : Variable
Продолжительность : 15 м.
Вид битрейта : Переменный
Битрейт : 7892 Кбит/сек
Максимальный битрейт : 9800 Кбит/сек
Ширина : 720 пикселей
Высота : 480 пикселей
Соотношение сторон : 16:9
Частота кадров : 23,976 кадра/сек
Стандарт вещания : NTSC
Цветовое пространство : YUV
Субдискретизация насыщенности : 4:2:0
Битовая глубина : 8 бит
Тип развёртки : Прогрессивная
Порядок развёртки : 2:3 Pulldown
Метод сжатия : С потерями
Бит/(Пиксели*Кадры) : 0.952
Временной код первого кадра : 01:00:00:00
Оригинал временного кода : Group of pictures header
Размер потока : 855 Мбайт (86%)
Аудио #1
Идентификатор : 189 (0xBD)-128 (0x80)
Формат : AC-3
Формат/Информация : Audio Coding 3
Расширение режима : CM (complete main)
Параметр Endianness формата : Big
Режим смешивания : DVD-Video
Продолжительность : 15 м.
Вид битрейта : Постоянный
Битрейт : 384 Кбит/сек
Каналы : 6 каналов
Расположение каналов : Front: L C R, Side: L R, LFE
Частота : 48,0 КГц
Битовая глубина : 16 бит
Метод сжатия : С потерями
Размер потока : 41,6 Мбайт (4%)
Аудио #2
Идентификатор : 189 (0xBD)-129 (0x81)
Формат : AC-3
Формат/Информация : Audio Coding 3
Расширение режима : CM (complete main)
Параметр Endianness формата : Big
Режим смешивания : DVD-Video
Продолжительность : 15 м.
Вид битрейта : Постоянный
Битрейт : 384 Кбит/сек
Каналы : 6 каналов
Расположение каналов : Front: L C R, Side: L R, LFE
Частота : 48,0 КГц
Битовая глубина : 16 бит
Метод сжатия : С потерями
Размер потока : 41,6 Мбайт (4%)
Аудио #3
Идентификатор : 189 (0xBD)-130 (0x82)
Формат : AC-3
Формат/Информация : Audio Coding 3
Расширение режима : CM (complete main)
Параметр Endianness формата : Big
Режим смешивания : DVD-Video
Продолжительность : 15 м.
Вид битрейта : Постоянный
Битрейт : 384 Кбит/сек
Каналы : 6 каналов
Расположение каналов : Front: L C R, Side: L R, LFE
Частота : 48,0 КГц
Битовая глубина : 16 бит
Метод сжатия : С потерями
Размер потока : 41,6 Мбайт (4%)
Текст #1
Идентификатор : 189 (0xBD)-32 (0x20)
Формат : RLE
Формат/Информация : Run-length encoding
Режим смешивания : DVD-Video
Текст #2
Идентификатор : 189 (0xBD)-33 (0x21)
Формат : RLE
Формат/Информация : Run-length encoding
Режим смешивания : DVD-Video
Меню

Диск 4. Скриншоты фильма, сэмпл,точка перехода, Медиаинфо.


СЕМПЛ

Медиаинфо.

Общее
Полное имя : E:\Video\Game Of Thrones- SO II- (DVD9)\disk 4\VIDEO_TS\VTS_01_1.VOB
Формат : MPEG-PS
Размер файла : 1000 Мбайт
Продолжительность : 15 м.
Режим общего битрейта : Переменный
Общий поток : 9060 Кбит/сек
Видео
Идентификатор : 224 (0xE0)
Формат : MPEG Video
Версия формата : Version 2
Профиль формата : Main@Main
Параметр BVOP формата : Да
Параметр матрицы формата : По умолчанию
Параметр GOP формата : Variable
Продолжительность : 15 м.
Вид битрейта : Переменный
Битрейт : 7728 Кбит/сек
Максимальный битрейт : 9800 Кбит/сек
Ширина : 720 пикселей
Высота : 480 пикселей
Соотношение сторон : 16:9
Частота кадров : 23,976 кадра/сек
Стандарт вещания : NTSC
Цветовое пространство : YUV
Субдискретизация насыщенности : 4:2:0
Битовая глубина : 8 бит
Тип развёртки : Прогрессивная
Порядок развёртки : 2:3 Pulldown
Метод сжатия : С потерями
Бит/(Пиксели*Кадры) : 0.933
Временной код первого кадра : 01:00:00:00
Оригинал временного кода : Group of pictures header
Размер потока : 853 Мбайт (85%)
Аудио #1
Идентификатор : 189 (0xBD)-128 (0x80)
Формат : AC-3
Формат/Информация : Audio Coding 3
Расширение режима : CM (complete main)
Параметр Endianness формата : Big
Режим смешивания : DVD-Video
Продолжительность : 15 м.
Вид битрейта : Постоянный
Битрейт : 384 Кбит/сек
Каналы : 6 каналов
Расположение каналов : Front: L C R, Side: L R, LFE
Частота : 48,0 КГц
Битовая глубина : 16 бит
Метод сжатия : С потерями
Размер потока : 42,4 Мбайт (4%)
Аудио #2
Идентификатор : 189 (0xBD)-129 (0x81)
Формат : AC-3
Формат/Информация : Audio Coding 3
Расширение режима : CM (complete main)
Параметр Endianness формата : Big
Режим смешивания : DVD-Video
Продолжительность : 15 м.
Вид битрейта : Постоянный
Битрейт : 384 Кбит/сек
Каналы : 6 каналов
Расположение каналов : Front: L C R, Side: L R, LFE
Частота : 48,0 КГц
Битовая глубина : 16 бит
Метод сжатия : С потерями
Размер потока : 42,4 Мбайт (4%)
Аудио #3
Идентификатор : 189 (0xBD)-130 (0x82)
Формат : AC-3
Формат/Информация : Audio Coding 3
Расширение режима : CM (complete main)
Параметр Endianness формата : Big
Режим смешивания : DVD-Video
Продолжительность : 15 м.
Вид битрейта : Постоянный
Битрейт : 384 Кбит/сек
Каналы : 6 каналов
Расположение каналов : Front: L C R, Side: L R, LFE
Частота : 48,0 КГц
Битовая глубина : 16 бит
Метод сжатия : С потерями
Размер потока : 42,4 Мбайт (4%)
Текст #1
Идентификатор : 189 (0xBD)-32 (0x20)
Формат : RLE
Формат/Информация : Run-length encoding
Режим смешивания : DVD-Video
Текст #2
Идентификатор : 189 (0xBD)-33 (0x21)
Формат : RLE
Формат/Информация : Run-length encoding
Режим смешивания : DVD-Video
Меню

Диск 5. Скриншоты фильма, сэмпл,точка перехода, Медиаинфо.


СЕМПЛ

Медиаинфо.

Битовая глубина : 16 бит
Метод сжатия : С потерями
Размер потока : 44,7 Мбайт (4%)
Аудио #2
Идентификатор : 189 (0xBD)-129 (0x81)
Формат : AC-3
Формат/Информация : Audio Coding 3
Расширение режима : CM (complete main)
Параметр Endianness формата : Big
Режим смешивания : DVD-Video
Продолжительность : 16 м.
Вид битрейта : Постоянный
Битрейт : 384 Кбит/сек
Каналы : 6 каналов
Расположение каналов : Front: L C R, Side: L R, LFE
Частота : 48,0 КГц
Битовая глубина : 16 бит
Метод сжатия : С потерями
Размер потока : 44,7 Мбайт (4%)
Аудио #3
Идентификатор : 189 (0xBD)-130 (0x82)
Формат : AC-3
Формат/Информация : Audio Coding 3
Расширение режима : CM (complete main)
Параметр Endianness формата : Big
Режим смешивания : DVD-Video
Продолжительность : 16 м.
Вид битрейта : Постоянный
Битрейт : 384 Кбит/сек
Каналы : 6 каналов
Расположение каналов : Front: L C R, Side: L R, LFE
Частота : 48,0 КГц
Битовая глубина : 16 бит
Метод сжатия : С потерями
Размер потока : 44,7 Мбайт (4%)
Текст #1
Идентификатор : 189 (0xBD)-32 (0x20)
Формат : RLE
Формат/Информация : Run-length encoding
Режим смешивания : DVD-Video
Текст #2
Идентификатор : 189 (0xBD)-33 (0x21)
Формат : RLE
Формат/Информация : Run-length encoding
Режим смешивания : DVD-Video
Меню

ДВДинфо

Title: disk 1
Size: 6.44 Gb ( 6 755 392,00 KBytes ) - DVD-9
Enabled regions: 1, 2, 3, 4, 5, 6, 7, 8
VTS_01 :
Play Length: 00:52:38+00:53:26
Video: NTSC 16:9 (720x480) VBR, Auto Letterboxed
Audio:
Russian (Dolby AC3, 6 ch)
Russian (Dolby AC3, 6 ch)
English (Dolby AC3, 6 ch)
Subtitles:
Russian
English
Russian
* Menus Information *
VIDEO_TS Menu
Video:
NTSC 4:3 (720x480) VBR
English Language Unit :
Title Menu
VTS_01 Menu
Video:
NTSC 16:9 (720x480) VBR
Auto Letterboxed
English Language Unit :
Root Menu
Вне форума [Профиль] [ЛС]
Показать сообщения:    
Ответить на тему

Текущее время: Сегодня 20:56

Часовой пояс: GMT + 3



Вы не можете начинать темы
Вы не можете отвечать на сообщения
Вы не можете редактировать свои сообщения
Вы не можете удалять свои сообщения
Вы не можете голосовать в опросах
Вы не можете прикреплять файлы к сообщениям
Вы не можете скачивать файлы