Сегодня идет свободное скачивание без начисления Download

Раздолбай / Рейк / Rake, Сезон: 4 (4) / Серии: 1-2 из 8 (Peter Duncan, Andrew Knight) [2016, драма, комедия, HDTVRip] Original + Rus Sub

Ответить на тему
 
Автор
Сообщение

Omen ®

Стаж: 6 лет 1 месяц

Сообщений: 184308

Торрент-статистика

Пост 01-Июн-2016 09:00

[Цитировать]

Раздолбай / Рейк / Rake- Год выпуска: 2016
Страна: Австралия
Жанр: Драма, комедия, криминал
Продолжительность: 55 мин
Перевод: Русские субтитры, Нотабеноид
Русские субтитры: Авторы: kahlan, izolenta
Режиссёр: Peter Duncan, Andrew Knight
В ролях: Richard Roxburgh, Matt Day, Adrienne Pickering, Russell Dykstra, Danielle Cormack, Caroline Brazier, Geoff Morrell
Описание:
Австралийский сериал об адвокате Кливере Грине с весьма подмоченным моральным обликом - женщины, кокаин, зависимость от азартных игр, неуплата налогов, сомнительные клиенты. Но адвокат он блестящий и часто берется за безнадежные дела, которыми более правильные коллеги не хотят портить репутацию.
Доп. информация:
Кроме париков и мантий, Австралия сохраняет принятое в Англии деление юристов на "солиситоров" (ведут дела с клиентом, собирают улики и нанимают ("инструктируют") барристеров) и "барристеров" (выступают в зале суда). Кливер - барристер, а Барни - солиситор.
Внимание!
Изредка мелькает нецензурная лексика!)) Временами мелькает обнажёнка.)
Сэмпл: - http://multi-up.com/1102827
Качество: PDTVRip
Формат: mkv
Видео: MPEG-4 Visual at 1516 Кбит/сек, 716 x 404 (1.772) at 25.000 fps
Аудио: AAC at 64,0 Кбит/сек, 2 канала, 44,1 КГц

MI

Полное имя : D:\Раздачи\Rake-4\rake.s04e01.pdtv.x264-izo.mp4
Формат : MPEG-4
Профиль формата : Base Media
Идентификатор кодека : isom
Размер файла : 632 Мбайт
Продолжительность : 55 м.
Режим общего битрейта : Переменный
Общий поток : 1584 Кбит/сек
Видео
Идентификатор : 1
Формат : MPEG-4 Visual
Профиль формата : Simple@L3
Параметр BVOP формата : Нет
Параметр QPel формата : Нет
Параметр GMC формата : Без точки перехода
Параметр матрицы формата : Default (H.263)
Идентификатор кодека : 20
Продолжительность : 55 м.
Битрейт : 1516 Кбит/сек
Ширина : 716 пикселей
Высота : 404 пикселя
Соотношение сторон : 16:9
Режим частоты кадров : Постоянный
Частота кадров : 25,000 кадров/сек
Цветовое пространство : YUV
Субдискретизация насыщенности : 4:2:0
Битовая глубина : 8 бит
Тип развёртки : Прогрессивная
Метод сжатия : С потерями
Бит/(Пиксели*Кадры) : 0.210
Размер потока : 605 Мбайт (96%)
Аудио
Идентификатор : 2
Формат : AAC
Формат/Информация : Advanced Audio Codec
Профиль формата : LC
Идентификатор кодека : 40
Продолжительность : 55 м.
Вид битрейта : Переменный
Битрейт : 64,0 Кбит/сек
Каналы : 2 канала
Расположение каналов : Front: L R
Частота : 44,1 КГц
Метод сжатия : С потерями
Размер потока : 25,5 Мбайт (4%)

Скриншоты

Внимание, раздача ведется путем добавления новых серий

Раздача ведётся путём добавления новых серий; при каждом добавлении создаётся новый торрент. Чтобы начать докачку новой серии, пользователям необходимо сделать следующее:
(1) остановить скачивание,
(2) удалить старый торрент у себя из клиента (старые серии удалять не надо),
(3) скачать новый торрент и запустить его у себя в клиенте вместо старого, при этом указать клиенту путь в старую папку куда и должно происходить скачивание новых серий.
Ваш клиент при этом должен произвести хеширование (проверку) старой папки (если не производит сам - помогите ему сделать это), и будет докачивать только те серии которых у вас ещё нет. Старые серии при этом не удаляются, а продолжают раздаваться!
Eсли вы уже удалили старые серии, то предотвратить повторную закачку старых серий можно, отжав галочку в соответствующих местах при запуске нового торрента. По возможности, желательно не удалять старые серии как можно дольше чтобы релизёр не столько продолжал раздавать старые серии, а смог сконцентрироваться на новых.
Вне форума [Профиль] [ЛС]
Показать сообщения:    
Ответить на тему

Текущее время: Сегодня 11:40

Часовой пояс: GMT + 3



Вы не можете начинать темы
Вы не можете отвечать на сообщения
Вы не можете редактировать свои сообщения
Вы не можете удалять свои сообщения
Вы не можете голосовать в опросах
Вы не можете прикреплять файлы к сообщениям
Вы не можете скачивать файлы