Сегодня идет свободное скачивание без начисления Download

Мама / Mum / Сезон: 1 / Серии: 1 (5) (Ричард Лэкстон) [2016, трагикомедия, WEBRip 720p] DVO (Ozz) + Original + Rus Sub

Ответить на тему
 
Автор
Сообщение

Omen ®

Стаж: 5 лет 9 месяцев

Сообщений: 184433

Торрент-статистика

Пост 30-Май-2016 18:00

[Цитировать]

Mum - First Season
Мама - Первый сезон- Год выхода: 2016
Страна:Великобритания
Жанр: трагикомедия
Продолжительность: ~25 мин
Перевод: Профессиональный (двухголосый закадровый) Ozz-Режиссер: Ричард Лэкстон
В ролях: Lesley Manville, Peter Mullan, Sam Swainsbury, Lisa McGrillis, Ross Boatman, Dorothy Atkinson, Karl Johnson, Marlene Sidaway, Matthew Aubrey, Ray Emmet Brown, Tanya Franks и др.-Описание: Элегантная трагикомедия BBC от создателя «Он и Она». Кэти только что потеряла мужа, и даётся ей это совсем нелегко. От эгоистов-родственников совсем нет спасения, девушка сына – настоящая блондинка, да и сын сам не далеко от неё ушёл. Неужели теперь придётся справляться одной?! Настало время искать в жизни новые смыслы.-[url=tracker.php?f%5B%5D=189&f%5B%5D=2366&nm=Mum]Все раздачи сериала[/url] | Sample- - Роли озвучивают: | Ирина Воронова и Алексей Серегин |
Автор перевода: | Александр Шумилов и Кирилл Порозов (Postcomedy) |
Подготовлено: Ozz-Качество: WEBRip 720p
Формат: mkv
Видео кодек: x264
Аудио кодек: AC3
Видео: 1280x720 at 23,976 fps, AVC, 3500 kbps avg, 0.100 b/pixel
Аудио #1: Russian 48 kHz, AC3, 2 channels, 192 kbpss |Ozz|
Аудио #2: English 48 kHz, AC3, 2 channels, 192 kbps |Original|
Субтитры: Russian - (srt)

MediaInfo

Код:
Общее
Уникальный идентификатор                 : 223490123525933285109260379525398087548 (0xA822A1D2712550E6903F4827E8D7477C)
Полное имя                               : H:\Mum.S01.720p.WEBRip.Rus.Eng.Ozz\Mum.S01E01.720p.WEBRip.Rus.Eng.Ozz.mkv
Формат                                   : Matroska
Версия формата                           : Version 4 / Version 2
Размер файла                             : 502 Мбайт
Продолжительность                        : 26 м.
Режим общего битрейта                    : Переменный
Общий поток                              : 2684 Кбит/сек
Дата кодирования                         : UTC 2016-05-30 13:56:34
Программа кодирования                    : mkvmerge v6.3.0 ('You can't stop me!') built on Jun 28 2013 20:09:41
Библиотека кодирования                   : libebml v1.3.0 + libmatroska v1.4.0
Видео
Идентификатор                            : 1
Формат                                   : AVC
Формат/Информация                        : Advanced Video Codec
Профиль формата                          : High@L4.1
Параметр CABAC формата                   : Да
Параметр ReFrames формата                : 2 кадра
Идентификатор кодека                     : V_MPEG4/ISO/AVC
Продолжительность                        : 26 м.
Вид битрейта                             : Переменный
Битрейт                                  : 2246 Кбит/сек
Максимальный битрейт                     : 3500 Кбит/сек
Ширина                                   : 1280 пикселей
Высота                                   : 720 пикселей
Соотношение сторон                       : 16:9
Режим частоты кадров                     : Постоянный
Частота кадров                           : 25,000 кадров/сек
Цветовое пространство                    : YUV
Субдискретизация насыщенности            : 4:2:0
Битовая глубина                          : 8 бит
Тип развёртки                            : Прогрессивная
Бит/(Пиксели*Кадры)                      : 0.097
Размер потока                            : 420 Мбайт (84%)
Default                                  : Да
Forced                                   : Нет
Аудио #1
Идентификатор                            : 2
Формат                                   : AC-3
Формат/Информация                        : Audio Coding 3
Расширение режима                        : CM (complete main)
Параметр Endianness формата              : Big
Идентификатор кодека                     : A_AC3
Продолжительность                        : 26 м.
Вид битрейта                             : Постоянный
Битрейт                                  : 192 Кбит/сек
Каналы                                   : 2 канала
Расположение каналов                     : Front: L R
Частота                                  : 48,0 КГц
Битовая глубина                          : 16 бит
Метод сжатия                             : С потерями
Размер потока                            : 35,9 Мбайт (7%)
Заголовок                                : DVO Ozz-tv
Язык                                     : Russian
Default                                  : Да
Forced                                   : Нет
Аудио #2
Идентификатор                            : 3
Формат                                   : AC-3
Формат/Информация                        : Audio Coding 3
Расширение режима                        : CM (complete main)
Параметр Endianness формата              : Big
Идентификатор кодека                     : A_AC3
Продолжительность                        : 26 м.
Вид битрейта                             : Постоянный
Битрейт                                  : 192 Кбит/сек
Каналы                                   : 2 канала
Расположение каналов                     : Front: L R
Частота                                  : 48,0 КГц
Битовая глубина                          : 16 бит
Метод сжатия                             : С потерями
Размер потока                            : 35,9 Мбайт (7%)
Язык                                     : English
Default                                  : Нет
Forced                                   : Нет
Текст
Идентификатор                            : 4
Формат                                   : UTF-8
Идентификатор кодека                     : S_TEXT/UTF8
Идентификатор кодека/Информация          : UTF-8 Plain Text
Язык                                     : Russian
Default                                  : Нет
Forced                                   : Нет
[/spoiler]

Screenshots

Внимание! Раздача ведётся путём добавления новых серий

Внимание! Раздача ведётся путём добавления новых серий; при каждом добавлении создаётся новый торрент. Чтобы начать докачку новой серии, пользователям необходимо сделать следующее:
(1) остановить скачивание,
(2) удалить старый торрент у себя из клиента (старые серии удалять не надо),
(3) скачать новый торрент и запустить его у себя в клиенте вместо старого, при этом указать клиенту путь в старую папку куда и должно происходить скачивание новых серий.
Ваш клиент при этом должен произвести хеширование (проверку) старой папки (если не производит сам - помогите ему сделать это), и будет докачивать только те серии которых у вас ещё нет. Старые серии при этом не удаляются, а продолжают раздаваться!
Eсли вы уже удалили старые серии, то предотвратить повторную закачку старых серий можно, отжав галочку в соответствующих местах при запуске нового торрента. По возможности, желательно не удалять старые серии как можно дольше чтобы релизёр не столько продолжал раздавать старые серии, а смог сконцентрироваться на новых.
-
Вне форума [Профиль] [ЛС]
Показать сообщения:    
Ответить на тему

Текущее время: Сегодня 16:42

Часовой пояс: GMT + 3



Вы не можете начинать темы
Вы не можете отвечать на сообщения
Вы не можете редактировать свои сообщения
Вы не можете удалять свои сообщения
Вы не можете голосовать в опросах
Вы не можете прикреплять файлы к сообщениям
Вы не можете скачивать файлы