Сегодня идет свободное скачивание без начисления Download

Роковые ошибки Тодда Маргарета / The Increasingly Poor Decisions of Todd Margaret / Сезон: 3 / Серии: 1-2 из 6 (Джон Хардвик) [2016 г., Комедия, WEB-DLRip] DVO (SNK-TV) + Original + Rus Subs

Ответить на тему
 
Автор
Сообщение

Omen ®

Стаж: 6 лет 1 месяц

Сообщений: 184308

Торрент-статистика

Пост 29-Май-2016 09:00

[Цитировать]

Роковые ошибки Тодда Маргарета
The Increasingly Poor Decisions of Todd Margaret
- Год выпуска: 2016
Страна: США, Великобритания
Жанр: Комедия
Продолжительность: ~23 минут-Перевод: Любительский (двухголосый закадровый) - /SNK-TV/
Субтитры: Русские (Полные) - /SNK-TV/-Режиссёр: Джон Хардвик
В ролях: Дэвид Кросс, Джон Форчун, Уилл Арнетт, Эмбер Тэмблин, Шарон Хорган, Кайван Новак, Блейк Харрисон, Роджер Уоткинс, Кэти Мерфи, Спайк Джонз, Elisha Willett, Джанин Гарофало, Расс Тэмблин-Описание: Американец Тодд Маргарет (Девид Кросс) волей случая попадает в лондонский филиал компании, в которой он работает. Все, что от него требуется - продать за неделю несколько тысяч корейских энергетических напитков, прежде чем приедет его босс с проверкой. Проблема в том, что он ничего не знает ни о британской культуре, ни о торговле.-
Скачать сэмпл--Качество: WEB-DLRip
Формат: AVI
Видео кодек: Xvid
Аудио кодек: MP3
Видео: Xvid 720x400 23.976fps 1399kbps
Аудио Rus: MP3 48000Hz stereo 128kbps
Аудио Eng: MP3 48000Hz stereo 128kbps-

Список серий

01. Todd Margaret Part 1
02. Todd Margaret Part 2
03. The Decisions of Todd Margaret
04. The Poor Decisions of Todd Margaret (1)
05. The Poor Decisions of Todd Margaret (2)
06. The Increasingly Poor Decisions of Todd Margaret

Скриншоты

-

MediaInfo

General
Complete name : W:\Торка на W\Todd Margaret Season 3\Todd.Margaret.Season.3.SNK-TV\The.Increasingly.Poor.Decisions.of.Todd.Margaret.S03E01.WEB-DLRip.SNK-TV.avi
Format : AVI
Format/Info : Audio Video Interleave
File size : 269 MiB
Duration : 22mn 29s
Overall bit rate : 1 670 Kbps
Writing application : VirtualDubModRus 1.5.10.2 (build 2542/release)
Writing library : VirtualDubMod build 2542/release
Video
ID : 0
Format : MPEG-4 Visual
Format profile : Simple@L3
Format settings, BVOP : No
Format settings, QPel : No
Format settings, GMC : No warppoints
Format settings, Matrix : Default (H.263)
Codec ID : XVID
Codec ID/Hint : XviD
Duration : 22mn 29s
Bit rate : 1 400 Kbps
Width : 720 pixels
Height : 400 pixels
Display aspect ratio : 16:9
Frame rate : 23.976 fps
Color space : YUV
Chroma subsampling : 4:2:0
Bit depth : 8 bits
Scan type : Progressive
Compression mode : Lossy
Bits/(Pixel*Frame) : 0.203
Stream size : 225 MiB (84%)
Writing library : XviD 67
Audio #1
ID : 1
Format : MPEG Audio
Format version : Version 1
Format profile : Layer 3
Mode : Joint stereo
Mode extension : MS Stereo
Codec ID : 55
Codec ID/Hint : MP3
Duration : 22mn 29s
Bit rate mode : Constant
Bit rate : 128 Kbps
Channel(s) : 2 channels
Sampling rate : 48.0 KHz
Compression mode : Lossy
Stream size : 20.6 MiB (8%)
Alignment : Aligned on interleaves
Interleave, duration : 42 ms (1.00 video frame)
Interleave, preload duration : 504 ms
Audio #2
ID : 2
Format : MPEG Audio
Format version : Version 1
Format profile : Layer 3
Mode : Joint stereo
Mode extension : MS Stereo
Codec ID : 55
Codec ID/Hint : MP3
Duration : 22mn 29s
Bit rate mode : Constant
Bit rate : 128 Kbps
Channel(s) : 2 channels
Sampling rate : 48.0 KHz
Compression mode : Lossy
Stream size : 20.6 MiB (8%)
Alignment : Aligned on interleaves
Interleave, duration : 42 ms (1.00 video frame)
Interleave, preload duration : 504 ms
-

Раздача ведётся путём добавления новых серий

Внимание! Раздача ведётся путём добавления новых серий; при каждом добавлении создаётся новый торрент. Чтобы начать докачку новой серии, пользователям необходимо сделать следующее:
(1) остановить скачивание,
(2) удалить старый торрент у себя из клиента (старые серии удалять не надо),
(3) скачать новый торрент и запустить его у себя в клиенте вместо старого, при этом указать клиенту путь в старую папку куда и должно происходить скачивание новых серий.
Ваш клиент при этом должен произвести хеширование (проверку) старой папки (если не производит сам - помогите ему сделать это), и будет докачивать только те серии которых у вас ещё нет. Старые серии при этом не удаляются, а продолжают раздаваться!
Eсли вы уже удалили старые серии, то предотвратить повторную закачку старых серий можно, отжав галочку в соответствующих местах при запуске нового торрента. По возможности, желательно не удалять старые серии как можно дольше чтобы релизёр не столько продолжал раздавать старые серии, а смог сконцентрироваться на новых.
-
Вне форума [Профиль] [ЛС]
Похожие темы
Форум Тема Автор Торрент Отв. Посл. сообщение
./templates/default/images/folder_dl.gif Справочники, энциклопедии и словари Пимслер | Английский для русскоговорящих (Pimsleur. English for Russian Speakers) 1, 2, 3 части (90 уроков + 21 для чтения) [2010] [MP3+PDF+DOC] Omen
1 | 0

0 | 1767

23

2014-06-20 21:10
Omen Последнее
./templates/default/images/folder_dl.gif Обучающее видео Алексей Пахомов | Анализ осциллограмм [7 уроков] (2016) PCRec Omen
1 | 0

0 | 1418

32

2016-03-09 06:29
Omen Последнее
./templates/default/images/folder_dl.gif Обучающее видео Екатерина Любимова | Видеокурс «57 практических фотошоп уроков для чайников» (2017) HDTVRip [H.264/720p-LQ] moralis
1 | 0

0 | 3064

23

2017-10-07 22:22
moralis Последнее
Показать сообщения:    
Ответить на тему

Текущее время: Сегодня 23:45

Часовой пояс: GMT + 3



Вы не можете начинать темы
Вы не можете отвечать на сообщения
Вы не можете редактировать свои сообщения
Вы не можете удалять свои сообщения
Вы не можете голосовать в опросах
Вы не можете прикреплять файлы к сообщениям
Вы не можете скачивать файлы