Сегодня идет свободное скачивание без начисления Download

Двор / The Yard / Сезон: 1 / Серии: 1-6 из 6 (Michael Mabbott) [2011, комедия, WEB-DL 720p] VO (den904) + Original

Ответить на тему
 
Автор
Сообщение

Omen ®

Стаж: 5 лет 6 месяцев

Сообщений: 186946

Торрент-статистика

Пост 29-Май-2016 00:00

[Цитировать]

Двор / The Yard
Год выпуска: 2011
Страна: Канада
Телеканал: HBO Canada
Жанр: комедия
Продолжительность: 25мин
Перевод: Любительский (одноголосый закадровый) den904
Режиссёр: Michael Mabbott
В ролях: Квентин, Колантони, Шемар Чарльз, Алекс Кардилло и др.
Описание: Добро пожаловать в джунгли… детской площадки. Кипучая жизнь двора искажённо отражает весь мир в миниатюре: здесь есть коррупция, алчность, насилие, соблазны и предательство. Рассказ в псевдодокументальном стиле о борьбе "Тимура и его команды" против банды хулиганов за влияние на школьном дворе. Это комедия, где Крёстный отец переменки переживает классическую драму Ромео и Джульетты.
Доп. информация: Рекомендуется просмотр с субтитрами.
Файлы подготовлены [url=profile.php?mode=viewprofile&u=15389934]13napas[/url]
Фанатам "Прослушки" и "Сопрано" смотреть обязательно.

Качество: WEB-DL 720p
Контейнер: MKV
Видео: AVC, 1280X720, 16:9, 23.976 fps, 4 034 Kbps
Аудио 1: РУС - AC-3, 48.0 KHz, 2 channels, 192 Kbps
Аудио 2: ENG - AC-3, 48.0 KHz, 6 channels, 384 Kbps
Субтитры: русские (внутри контейнера, отключаемые)

Список серий

01 - The Economy/Экономика
02 - Girls vs. Boys/Девчонки против мальчишек
03 - The Territories/Территории
04 - The Black Market/Чёрный рынок
05 - The Great Compromise/Великий компромисс
06 - The Free Market Stinks/Вонь свободного рынка

MediaInfo

General
Unique ID : 252504992280160031084179378092492139132 (0xBDF6B14C86F84C7A8127579FFDAB2A7C)
Complete name : E:\The.Yard.S01.720p\The.Yard.S01E01.720p.WEB-DL.Rus.Eng.mkv
Format : Matroska
Format version : Version 4 / Version 2
File size : 944 MiB
Duration : 28mn 2s
Overall bit rate : 4 704 Kbps
Encoded date : UTC 2016-05-22 22:53:13
Writing application : mkvmerge v6.3.0 ('You can't stop me!') built on Jun 28 2013 20:09:41
Writing library : libebml v1.3.0 + libmatroska v1.4.0
Video
ID : 1
Format : AVC
Format/Info : Advanced Video Codec
Format profile : High@L3.1
Format settings, CABAC : No
Format settings, ReFrames : 2 frames
Codec ID : V_MPEG4/ISO/AVC
Duration : 28mn 2s
Bit rate : 4 034 Kbps
Width : 1 280 pixels
Height : 720 pixels
Display aspect ratio : 16:9
Frame rate mode : Constant
Frame rate : 23.976 fps
Color space : YUV
Chroma subsampling : 4:2:0
Bit depth : 8 bits
Scan type : Progressive
Bits/(Pixel*Frame) : 0.183
Stream size : 809 MiB (86%)
Language : English
Default : Yes
Forced : No
Color primaries : BT.709
Transfer characteristics : BT.709
Matrix coefficients : BT.709
Audio #1
ID : 2
Format : AC-3
Format/Info : Audio Coding 3
Mode extension : CM (complete main)
Format settings, Endianness : Big
Codec ID : A_AC3
Duration : 28mn 2s
Bit rate mode : Constant
Bit rate : 192 Kbps
Channel(s) : 2 channels
Channel positions : Front: L R
Sampling rate : 48.0 KHz
Bit depth : 16 bits
Compression mode : Lossy
Stream size : 38.5 MiB (4%)
Title : VO den904
Language : Russian
Default : Yes
Forced : No
Audio #2
ID : 3
Format : AC-3
Format/Info : Audio Coding 3
Mode extension : CM (complete main)
Format settings, Endianness : Big
Codec ID : A_AC3
Duration : 28mn 2s
Bit rate mode : Constant
Bit rate : 384 Kbps
Channel(s) : 6 channels
Channel positions : Front: L C R, Side: L R, LFE
Sampling rate : 48.0 KHz
Bit depth : 16 bits
Compression mode : Lossy
Stream size : 77.0 MiB (8%)
Language : English
Default : No
Forced : No
Text
ID : 4
Format : UTF-8
Codec ID : S_TEXT/UTF8
Codec ID/Info : UTF-8 Plain Text
Title : Agatha
Language : Russian
Default : No
Forced : No

Скриншоты

Вне форума [Профиль] [ЛС]
Показать сообщения:    
Ответить на тему

Текущее время: Сегодня 00:17

Часовой пояс: GMT + 3



Вы не можете начинать темы
Вы не можете отвечать на сообщения
Вы не можете редактировать свои сообщения
Вы не можете удалять свои сообщения
Вы не можете голосовать в опросах
Вы не можете прикреплять файлы к сообщениям
Вы не можете скачивать файлы