Сегодня идет свободное скачивание без начисления Download

Скотт и Бейли / Scott & Bailey / Сезон: 4 / Серии: 1-1 из 8 (Мораг Фуллартон, Чина Му-Ен, Пол Уолкер и др.) [2014, драма, детектив, криминал, HDTVRip] MVO (RedDiamond Studio)

Ответить на тему
 
Автор
Сообщение

Omen ®

Стаж: 5 лет 6 месяцев

Сообщений: 186946

Торрент-статистика

Пост 28-Май-2016 21:00

[Цитировать]

Скотт и Бейли / Scott & Bailey
Год выпуска: 2014
Страна: Великобритания
Жанр: драма, детектив, криминал
Продолжительность: ~45 min
Перевод: Любительский (многоголосый закадровый) RedDiamond Studio
Режиссёр: Мораг Фуллартон, Чина Му-Ен, Пол Уолкер и др.
В ролях: Сюранна Джоунс, Лесли Шарп, Дэвид Прошо, Тони Муни, Амелия Баллмор, Делрой Браун и др.
Описание: Криминальная драма, повествующая о личной и профессиональной жизни двух детективов манчестерской полиции, специализирующихся на делах об убийствах.

Релиз

Текст читали: Полина Касаткина, Саломея Журавская, Богдан Филенко(1) и Андрей Вересков.
Озвучено по заказу AM1977.
Ссылка на сэмпл
Качество: HDTVRip
Формат: MP4
Видео: H.264, 720x404, 16:9, 25fps, 754 kbps
Аудио: MP3, 48000 kHz, 2 ch, 192 kbps
Субтитры: отсутствуют

MediaInfo

General
Complete name : D:\video\Скотт и Бейли (4 сезон)\Scott and Bailey s04e01.mp4
Format : MPEG-4
Format profile : Base Media
Codec ID : isom
File size : 306 MiB
Duration : 45mn 8s
Overall bit rate : 949 Kbps
Encoded date : UTC 2016-05-26 20:20:30
Tagged date : UTC 2016-05-26 20:20:30
Writing application : Yamb 2.1.0.0 []http://yamb.unite-video.com]
Video
ID : 1
Format : AVC
Format/Info : Advanced Video Codec
Format profile : High@L3.1
Format settings, CABAC : Yes
Format settings, ReFrames : 5 frames
Codec ID : avc1
Codec ID/Info : Advanced Video Coding
Duration : 45mn 7s
Bit rate : 755 Kbps
Maximum bit rate : 3 433 Kbps
Width : 720 pixels
Height : 404 pixels
Display aspect ratio : 16:9
Frame rate mode : Constant
Frame rate : 25.000 fps
Color space : YUV
Chroma subsampling : 4:2:0
Bit depth : 8 bits
Scan type : Progressive
Bits/(Pixel*Frame) : 0.104
Stream size : 244 MiB (80%)
Title : Video
Writing library : x264 core 142 r2479 dd79a61
Encoding settings : cabac=1 / ref=5 / deblock=1:0:0 / analyse=0x3:0x113 / me=umh / subme=8 / psy=1 / psy_rd=1.00:0.00 / mixed_ref=1 / me_range=16 / chroma_me=1 / trellis=1 / 8x8dct=1 / cqm=0 / deadzone=21,11 / fast_pskip=1 / chroma_qp_offset=-2 / threads=12 / lookahead_threads=2 / sliced_threads=0 / nr=0 / decimate=1 / interlaced=0 / bluray_compat=0 / constrained_intra=0 / bframes=3 / b_pyramid=2 / b_adapt=2 / b_bias=0 / direct=3 / weightb=1 / open_gop=0 / weightp=2 / keyint=250 / keyint_min=25 / scenecut=40 / intra_refresh=0 / rc_lookahead=50 / rc=crf / mbtree=1 / crf=19.0 / qcomp=0.60 / qpmin=0 / qpmax=69 / qpstep=4 / ip_ratio=1.40 / aq=1:1.00
Tagged date : UTC 2016-05-26 20:20:59
Color range : Limited
Matrix coefficients : BT.709
Audio
ID : 2
Format : MPEG Audio
Format version : Version 1
Format profile : Layer 3
Mode : Joint stereo
Mode extension : MS Stereo
Codec ID : 6B
Duration : 45mn 8s
Bit rate mode : Constant
Bit rate : 192 Kbps
Maximum bit rate : 198 Kbps
Channel(s) : 2 channels
Sampling rate : 48.0 KHz
Compression mode : Lossy
Stream size : 62.0 MiB (20%)
Writing library : LAME3.99r
Encoding settings : -m j -V 4 -q 2 -lowpass 18.6 -b 192
Encoded date : UTC 2016-05-26 20:20:55
Tagged date : UTC 2016-05-26 20:20:59

Скриншоты

Вне форума [Профиль] [ЛС]
Похожие темы
Форум Тема Автор Торрент Отв. Посл. сообщение
./templates/default/images/folder_dl.gif T Фильмы 2011-2016 Черная месса / Black Mass (Скотт Купер) [2015 г., драма, криминал, биография,WEB-DLRip] Region_13
1 | 0

0 | 1313

26

2016-01-12 12:08
Region_13 Последнее
Показать сообщения:    
Ответить на тему

Текущее время: Сегодня 04:05

Часовой пояс: GMT + 3



Вы не можете начинать темы
Вы не можете отвечать на сообщения
Вы не можете редактировать свои сообщения
Вы не можете удалять свои сообщения
Вы не можете голосовать в опросах
Вы не можете прикреплять файлы к сообщениям
Вы не можете скачивать файлы