Сегодня идет свободное скачивание без начисления Download

Дуэль под солнцем / Duel au soleil / Сезон: 1 / Серии: 1-6 из 6 (Оливье Гиньяр / Olivier Guignard) [2014, детектив, триллер, HDTVRip-AVC] VO (Project Web Mania)

Ответить на тему
 
Автор
Сообщение

Omen ®

Стаж: 5 лет 11 месяцев

Сообщений: 184329

Торрент-статистика

Пост 28-Май-2016 18:00

[Цитировать]

Дуэль под солнцем / Duel au soleil
Год выпуска: 2014
Страна: Франция
Жанр: детектив, триллер
Продолжительность: 48 мин.
Перевод: Любительский (одноголосый закадровый) Project_Web_Mania
Режиссёр: Оливье Гиньяр / Olivier Guignard
В ролях: Жарар Дармон / Gérard Darmon (Ange Renucci), Янн Гаэль / Yann Gael (Sébastien Le Tallec), Жанна Бурно / Jeanne Bournaud (Lise Darcourt), Дидье Феррари / Didier Ferrari (Toussaint Marchioni), Хлоя Стефани / Chloé Stefani (Joséphine Vissac)
Описание: Старший комиссар корсиканской полиции Анже Ренуччи – уважаемый ветеран уголовного розыска, использующий сомнительные методы работы. Его новый помощник – чернокожий бретонец Ле Таллек придерживается классических взглядов на работу полиции и сыска. Их противостояние, однако, не должно привести к проблемам в раскрытии преступлений.
Классический детектив с противостоянием двух совершенно разных персонажей, которые очень преданы одному делу, раскрытию преступлений. В 2016 году выйдет 2 сезон!!!
Сэмпл: http://multi-up.com/1103442
Качество: HDTVRip
Формат: MKV
Видео: AVC, 720x576@1024x576 (16:9), 25 fps, ~2897 kbps avg, 0.279 bit/pixel
Аудио: AC3, 192 Kbps, 48.0 KHz, 2 channels VO Project_Web_Mania
Субтитры: отсутствуют

MediaInfo

01.season.Duel.pod.solncem.VO\02_serya_VO.mkv
Формат : Matroska
Версия формата : Version 2
Размер файла : 1,07 Гбайт
Продолжительность : 48 м.
Общий поток : 3169 Кбит/сек
Дата кодирования : UTC 2015-12-25 07:30:22
Программа кодирования : mkvmerge v5.0.1 ('Es ist Sommer') built on Oct 9 2011 11:55:43
Библиотека кодирования : libebml v1.2.2 + libmatroska v1.3.0
Видео
Идентификатор : 1
Формат : MPEG Video
Версия формата : Version 2
Профиль формата : Main@Main
Параметр BVOP формата : Нет
Параметр матрицы формата : Выборочная
Идентификатор кодека : V_MPEG2
Идентификатор кодека/Информация : MPEG 1 or 2 Video
Продолжительность : 48 м.
Вид битрейта : Переменный
Битрейт : 2914 Кбит/сек
Ширина : 720 пикс.
Высота : 576 пикс.
Соотношение сторон : 16:9
Частота кадров : 25,000 кадр/сек
Стандарт вещания : PAL
Цветовое пространство : YUV
Подвыборка цветности : 4:2:0
Битовая глубина : 8 бит
Тип развёртки : Чересстрочная
Порядок развёртки : Верхнее поле первое
Метод сжатия : С потерями
Бит/(Пиксели*Кадры) : 0.281
Размер потока : 1004 Мбайт (92%)
Аудио
Идентификатор : 2
Формат : AC-3
Формат/Информация : Audio Coding 3
Расширение режима : CM (complete main)
Идентификатор кодека : A_AC3
Продолжительность : 48 м.
Вид битрейта : Постоянный
Битрейт : 192 Кбит/сек
Каналы : 2 канала
Расположение каналов : Front: L R
Частота : 48,0 КГц
Битовая глубина : 16 бит
Метод сжатия : С потерями
Размер потока : 66,1 Мбайт (6%)
Заголовок : VO_Project_Web_Mania
Язык : Russian

Скриншоты

Вне форума [Профиль] [ЛС]
Показать сообщения:    
Ответить на тему

Текущее время: Сегодня 02:07

Часовой пояс: GMT + 3



Вы не можете начинать темы
Вы не можете отвечать на сообщения
Вы не можете редактировать свои сообщения
Вы не можете удалять свои сообщения
Вы не можете голосовать в опросах
Вы не можете прикреплять файлы к сообщениям
Вы не можете скачивать файлы