Сегодня идет свободное скачивание без начисления Download

Шериф / Chérif / Сезон: 1 / Серии: 1-8 из 8 (Венсан Джованни / Vincent Giovanni) [2013, детектив, триллер, HDTVRip-AVC] VO (Project Web Mania)

Ответить на тему
 
Автор
Сообщение

Omen ®

Стаж: 5 лет 9 месяцев

Сообщений: 184402

Торрент-статистика

Пост 28-Май-2016 18:00

[Цитировать]

Шериф / Chérif
Год выпуска: 2013
Страна: Франция
Жанр: детектив, триллер
Продолжительность: 45 мин.
Перевод: Любительский (одноголосый закадровый) Project_Web_Mania
Режиссёр: Венсан Джованни / Vincent Giovanni
В ролях: Абделхафид Металси / Abdelhafid Metalsi (Kader Chérif), Кароль Бьяник / Carole Bianic (Adeline Briard), Мелез Бузид / Mélèze Bouzid (Sarah Chérif), Элоди Эсм / Élodie Hesme (Deborah Atlan), Роби Шинаси / Roby Schinasi (Jean-Yves Winkler)
Описание: Капитан полиции Кадер Шериф знает город, как свои пять пальцев, и, можно сказать, никогда не отлучается со службы, ведь его квартира находится на первом этаже дома напротив полицейского участка. Ему поручают расследовать необычные убийства, совершенные в Лионе. Конечно, в своей работе он придерживается только законных методов, которые иногда все же бывают несколько необычны и вызывают недовольство его нового напарника, тоже капитана полиции, Аделины Бриар.
Награда: приз Festival Séries Mania 2013 за лучшую мужскую роль во французском телесериале (Abdelhafid Metalsi).
Отличный образчик ТВ-детектива, в лучших традициях "Шерлока", "Менталиста", "Касла", но с неповторимым французским шармом!!!
Сэмпл: http://multi-up.com/1103438
Качество: HDTVRip
Формат: MKV
Видео: AVC, 720x576@1024x576 (16:9), 25 fps, ~2897 kbps avg, 0.279 bit/pixel
Аудио: AC3, 192 Kbps, 48.0 KHz, 2 channels VO Project_Web_Mania
Субтитры: отсутствуют

MediaInfo

01.season.SHERIF.VO\02_serya.mkv
Формат : Matroska
Версия формата : Version 2
Размер файла : 1,09 Гбайт
Продолжительность : 50 м.
Общий поток : 3107 Кбит/сек
Название фильма : https://vk.com/project_web_money
Дата кодирования : UTC 2015-11-27 09:19:48
Программа кодирования : mkvmerge v5.0.1 ('Es ist Sommer') built on Oct 9 2011 11:55:43
Библиотека кодирования : libebml v1.2.2 + libmatroska v1.3.0
Attachment : Yes / Yes
Видео
Идентификатор : 1
Формат : MPEG Video
Версия формата : Version 2
Профиль формата : Main@Main
Параметр BVOP формата : Нет
Параметр матрицы формата : Выборочная
Идентификатор кодека : V_MPEG2
Идентификатор кодека/Информация : MPEG 1 or 2 Video
Продолжительность : 50 м.
Вид битрейта : Переменный
Битрейт : 2853 Кбит/сек
Ширина : 720 пикс.
Высота : 576 пикс.
Соотношение сторон : 16:9
Частота кадров : 50,000 кадр/сек
Частота кадров в оригинале : 25,000 кадр/сек
Стандарт вещания : PAL
Цветовое пространство : YUV
Подвыборка цветности : 4:2:0
Битовая глубина : 8 бит
Тип развёртки : Чересстрочная
Порядок развёртки : Верхнее поле первое
Метод сжатия : С потерями
Бит/(Пиксели*Кадры) : 0.138
Размер потока : 1,00 Гбайт (92%)
Аудио
Идентификатор : 2
Формат : AC-3
Формат/Информация : Audio Coding 3
Расширение режима : CM (complete main)
Идентификатор кодека : A_AC3
Продолжительность : 50 м.
Вид битрейта : Постоянный
Битрейт : 192 Кбит/сек
Каналы : 2 канала
Расположение каналов : Front: L R
Частота : 48,0 КГц
Битовая глубина : 16 бит
Метод сжатия : С потерями
Размер потока : 69,2 Мбайт (6%)
Заголовок : VO_Project_Web_Money
Язык : Russian

Скриншоты

Вне форума [Профиль] [ЛС]
Показать сообщения:    
Ответить на тему

Текущее время: Сегодня 00:16

Часовой пояс: GMT + 3



Вы не можете начинать темы
Вы не можете отвечать на сообщения
Вы не можете редактировать свои сообщения
Вы не можете удалять свои сообщения
Вы не можете голосовать в опросах
Вы не можете прикреплять файлы к сообщениям
Вы не можете скачивать файлы