Сегодня идет свободное скачивание без начисления Download

Люцифер / Lucifer / Сезон: 1 / Серии: 1 из 13 (Нэйтан Хоуп / Nathan Hope) [2016, Фэнтези, драма, ужасы, WEB-DL 1080p] MVO (LostFilm) + Original + Subs (Rus, Eng)

Ответить на тему
 
Автор
Сообщение

Omen ®

Стаж: 5 лет 9 месяцев

Сообщений: 184393

Торрент-статистика

Пост 28-Май-2016 15:33

[Цитировать]

--Люцифер | Lucifer-- Год выпуска: 2016
Страна: США
Жанр: Фэнтези, драма, ужасы
Продолжительность: ~ 00:43:00-Перевод: Профессиональный (многоголосый закадровый) LostFilm-Режиссёр: Нэйтан Хоуп / Nathan Hope-В ролях: Рэйчел Харрис, Лорен Джерман, Кайла Юэлл, Кевин Алехандро, Лесли-Энн Брандт, Д.Б. Вудсайд, Том Эллис, Мэтт Корбой, Скарлет Эстевез и др...-Описание: Заскучавший и несчастный повелитель преисподней, Люцифер Морнингстар оставил свой престол и отправился в современный Лос-Анджелес, где основал ночной клуб «Lux». Очаровательный, харизматичный и дьявольски привлекательный Люцифер наслаждается своим отдыхом — вином, женщинами и музыкой — пока красивая поп-звезда не оказывается убитой на пороге его клуба…- -Качество: WEB-DL 1080p
Контейнер: MKV
Видео: AVC/H.264, 1916x1076 (16:9), 23,976 fps, ~5000 kbps, 0.103 bit/pixel
Аудио # 1: AC3, 48 kHz, 6 ch, 384 kbps, CBR - LostFilm
Аудио # 2: AC3, 48 kHz, 6 ch, 384 kbps, CBR - оригинал
Субтитры: русские (нотабеноид), английские

Релиз

Релиз: Grandfather61
Работа со звуком: Grandfather61
Дорожка #1 получена наложением выделенных голосов от «LostFilm» на центр оригинального AC3
Синхронизация субтитров: qqss44
Перевод субтитров: im_a_weirdo_, Daria_gorlova, masyaka, senezh, prosja, Cormorana, karinochka91, Bashkinator и др.(нотабеноид)

Список серий

01. Пилот (Pilot)

MediaInfo

General
Unique ID : 170971533747935278578104447821694507115 (0x809FEB6E121BBF4BAC963B227E32186B)
Complete name : G:\Films\Lucifer.S01.1080p.WEB-DL.LostFilm\Lucifer.S01E01.1080p.WEB-DL.DD5.1.LostFilm.mkv
Format : Matroska
Format version : Version 4 / Version 2
File size : 1.84 GiB
Duration : 44mn 55s
Overall bit rate : 5 868 Kbps
Movie name : Lucifer.S01E01.1080p.WEB-DL.DD5.1
Encoded date : UTC 2016-05-28 11:52:24
Writing application : mkvmerge v9.1.0 ('Little Earthquakes') 64bit
Writing library : libebml v1.3.3 + libmatroska v1.4.4
Video
ID : 1
Format : AVC
Format/Info : Advanced Video Codec
Format profile : High@L4
Format settings, CABAC : Yes
Format settings, ReFrames : 4 frames
Codec ID : V_MPEG4/ISO/AVC
Duration : 44mn 55s
Bit rate : 5 097 Kbps
Width : 1 916 pixels
Height : 1 076 pixels
Display aspect ratio : 16:9
Frame rate mode : Constant
Frame rate : 23.976 (23976/1000) fps
Color space : YUV
Chroma subsampling : 4:2:0
Bit depth : 8 bits
Scan type : Progressive
Bits/(Pixel*Frame) : 0.103
Stream size : 1.60 GiB (87%)
Language : English
Default : Yes
Forced : No
Color range : Limited
Color primaries : BT.709
Transfer characteristics : BT.709
Matrix coefficients : BT.709
Audio #1
ID : 2
Format : AC-3
Format/Info : Audio Coding 3
Mode extension : CM (complete main)
Format settings, Endianness : Big
Codec ID : A_AC3
Duration : 44mn 55s
Bit rate mode : Constant
Bit rate : 384 Kbps
Channel(s) : 6 channels
Channel positions : Front: L C R, Side: L R, LFE
Sampling rate : 48.0 KHz
Frame rate : 31.250 fps (1536 spf)
Compression mode : Lossy
Stream size : 123 MiB (7%)
Title : LostFilm 5.1
Language : Russian
Default : Yes
Forced : No
Audio #2
ID : 3
Format : AC-3
Format/Info : Audio Coding 3
Mode extension : CM (complete main)
Format settings, Endianness : Big
Codec ID : A_AC3
Duration : 44mn 55s
Bit rate mode : Constant
Bit rate : 384 Kbps
Channel(s) : 6 channels
Channel positions : Front: L C R, Side: L R, LFE
Sampling rate : 48.0 KHz
Frame rate : 31.250 fps (1536 spf)
Compression mode : Lossy
Stream size : 123 MiB (7%)
Title : original 5.1
Language : English
Default : No
Forced : No
Text #1
ID : 4
Format : UTF-8
Codec ID : S_TEXT/UTF8
Codec ID/Info : UTF-8 Plain Text
Duration : 43mn 22s
Bit rate : 149 bps
Count of elements : 980
Stream size : 47.6 KiB (0%)
Title : rus
Language : Russian
Default : No
Forced : No
Text #2
ID : 5
Format : UTF-8
Codec ID : S_TEXT/UTF8
Codec ID/Info : UTF-8 Plain Text
Duration : 43mn 9s
Bit rate : 90 bps
Count of elements : 985
Stream size : 28.7 KiB (0%)
Title : CC
Language : English
Default : No
Forced : No

Скриншоты

Внимание! Раздача ведётся путём добавления новых серий.


Внимание! Раздача ведётся путём добавления новых серий; при каждом добавлении создётся новый торрент. Чтобы начать докачку новой серии, пользователям необходимо сделать следующее:
Остановить скачивание.
Удалить старый торрент у себя из клиента (старые серии удалять не надо).
Скачать новый торрент и запустить его у себя в клиенте вместо старого, при этом указать клиенту путь в старую папку куда и должно происходить скачивание новых серий.
Ваш клиент при этом должен произвести хеширование (проверку) старой папки (если не производит сам - помогите ему сделать это), и будет докачивать только те серии которых у вас ещё нет. Старые серии при этом не удаляются, а продолжают раздаваться!
Eсли вы уже удалили старые серии, то предотвратить повторную закачку старых серий можно, отжав галочку в соответсвующих местах при запуске нового торрента. По возможности, желательно не удалять старые серии как можно дольше чтобы релизёр не столько продолжал раздавать старые серии, а смог сконцентрироваться на новых.
Вне форума [Профиль] [ЛС]
Показать сообщения:    
Ответить на тему

Текущее время: Сегодня 23:32

Часовой пояс: GMT + 3



Вы не можете начинать темы
Вы не можете отвечать на сообщения
Вы не можете редактировать свои сообщения
Вы не можете удалять свои сообщения
Вы не можете голосовать в опросах
Вы не можете прикреплять файлы к сообщениям
Вы не можете скачивать файлы