Today is a free download without charge Download

Граница пустоты: Сад грешников в 3Д / Kara no Kyoukai: Fukan Fuukei 3D / The Garden of Sinners 3D (Аоки Эй / Aoki Ei) [2016, Аниме, Триллер, Мистика, Ужасы, BDrip-AVC] Half SideBySide / Горизонтальная анаморфная стереопара

Reply to topic
 
Author
Message

Omen ®

Longevity: 7 years 9 months

Posts: 181087

Торрент-статистика

Post 28-May-2016 03:00

[Quote]

- Граница пустоты: Сад грешников в 3Д / The Garden of Sinners 3D / Kara no Kyoukai: Fukan Fuukei 3D
Год выпуска: 23.03.2016
Страна: Япония
Студия: UFO Table
Жанр: Аниме, Триллер, Мистика, Ужасы
Продолжительность: 00:50:10
Перевод: Любительский (двухголосый закадровый) - Anilibria
Русские субтитры: нет
Режиссер: Аоки Эй (Aoki Ei)
Cайт: ссылка
Описание: В сентябре 1998 года в Токио происходит серия самоубийств молодых девушек. Все девушки бросались с крыши заброшенного здания. После пятой жертвы к расследованию подключается агентство, в которое входят Токо Аодзаки, Микия Кокуто и Шики Рёги. Агентство занимается различной работой, даже сверхъестественными преступлениями. В этой ситуации Шики и получает возможность проявить свой уникальный дар.
Сэмпл: http://multi-up.com/1099722
Качество: BDrip
Контейнер: MKV
Формат 3D: SideBySide / Горизонтальная стереопара
Порядок ракурсов: левый ракурс первый
Видео кодек: h.264
Аудио кодек: AC3
Видео: MPEG4 Video (H264), 1920x1080, ~7 458 Kb/s, 23.976 fps
Аудио: jap: ac3, 48000 Hz, 5.1, 448 kb/s
Аудио 2: jap 2: ac3, 48000 Hz, 2 channels, 448 kb/s
Аудио 3: rus: ac3, 48000 Hz, 2 channels, 320 Kb/s - Anilibria

MediaInfo

General
Unique ID : 204320234031733306409474708557911156127 (0x99B6A54C5F3320B5AFE26D9A3525E59F)
Complete name :THE_GARDEN_OF_SINNERS_3D.mkv
Format : Matroska
Format version : Version 4 / Version 2
File size : 2.96 GiB
Duration : 50mn 10s
Overall bit rate : 8 437 Kbps
Movie name : THE_GARDEN_OF_SINNERS_3D.Title0
Encoded date : UTC 2016-04-29 14:14:27
Writing application : mkvmerge v9.0.0 ('Power to progress') 64bit
Writing library : libebml v1.3.3 + libmatroska v1.4.4
Attachements : cover.jpg
DURATION : 00:50:10.016000000
NUMBER_OF_FRAMES : 94063
NUMBER_OF_BYTES : 120400640
_STATISTICS_WRITING_APP : mkvmerge v9.0.0 ('Power to progress') 64bit
_STATISTICS_WRITING_DATE_UTC : 2016-04-29 14:14:27
_STATISTICS_TAGS : BPS DURATION NUMBER_OF_FRAMES NUMBER_OF_BYTES
Video
ID : 1
Format : AVC
Format/Info : Advanced Video Codec
Format profile : High@L4.1
Format settings, CABAC : Yes
Format settings, ReFrames : 2 frames
Codec ID : V_MPEG4/ISO/AVC
Duration : 50mn 10s
Bit rate : 7 053 Kbps
Nominal bit rate : 7 458 Kbps
Width : 1 920 pixels
Height : 1 080 pixels
Display aspect ratio : 16:9
Frame rate mode : Constant
Frame rate : 23.976 fps
Color space : YUV
Chroma subsampling : 4:2:0
Bit depth : 8 bits
Scan type : Progressive
Bits/(Pixel*Frame) : 0.142
Stream size : 2.47 GiB (84%)
Writing library : x264 core 142
Encoding settings : cabac=1 / ref=1 / deblock=1:-1:-1 / analyse=0x3:0 / me=hex / subme=5 / psy=0 / mixed_ref=0 / me_range=16 / chroma_me=1 / trellis=0 / 8x8dct=1 / cqm=0 / deadzone=21,11 / fast_pskip=0 / chroma_qp_offset=0 / threads=4 / lookahead_threads=1 / sliced_threads=0 / nr=0 / decimate=1 / interlaced=0 / bluray_compat=0 / constrained_intra=0 / bframes=2 / b_pyramid=0 / b_adapt=1 / b_bias=0 / direct=1 / weightb=0 / open_gop=0 / weightp=0 / keyint=24 / keyint_min=13 / scenecut=40 / intra_refresh=0 / rc=abr / mbtree=0 / bitrate=7458 / ratetol=1.0 / qcomp=0.60 / qpmin=0 / qpmax=69 / qpstep=4 / ip_ratio=1.40 / pb_ratio=1.30 / aq=1:1.00
Default : Yes
Forced : No
Color range : Limited
Color primaries : BT.709
Transfer characteristics : BT.709
Matrix coefficients : BT.709
Audio #1
ID : 2
Format : AC-3
Format/Info : Audio Coding 3
Mode extension : CM (complete main)
Format settings, Endianness : Big
Codec ID : A_AC3
Duration : 50mn 10s
Bit rate mode : Constant
Bit rate : 448 Kbps
Channel(s) : 6 channels
Channel positions : Front: L C R, Side: L R, LFE
Sampling rate : 48.0 KHz
Compression mode : Lossy
Stream size : 161 MiB (5%)
Language : Japanese
Default : Yes
Forced : No
Audio #2
ID : 3
Format : AC-3
Format/Info : Audio Coding 3
Mode extension : CM (complete main)
Format settings, Endianness : Big
Codec ID : A_AC3
Duration : 50mn 10s
Bit rate mode : Constant
Bit rate : 448 Kbps
Channel(s) : 2 channels
Channel positions : Front: L R
Sampling rate : 48.0 KHz
Compression mode : Lossy
Stream size : 161 MiB (5%)
Language : Japanese
Default : No
Forced : No
Audio #3
ID : 4
Format : AC-3
Format/Info : Audio Coding 3
Mode extension : CM (complete main)
Format settings, Endianness : Big
Codec ID : A_AC3
Duration : 50mn 10s
Bit rate mode : Constant
Bit rate : 320 Kbps
Channel(s) : 2 channels
Channel positions : Front: L R
Sampling rate : 48.0 KHz
Compression mode : Lossy
Stream size : 115 MiB (4%)
Language : Russian
Default : No
Forced : No

Скриншоты

Other forum [Profile] [PM]
Display posts from previous:    
Reply to topic

The time now is: Today 14:34

All times are GMT + 3 Hours



You cannot post new topics in this forum
You cannot reply to topics in this forum
You cannot edit your posts in this forum
You cannot delete your posts in this forum
You cannot vote in polls in this forum
You cannot attach files in this forum
You cannot download files in this forum