Сегодня идет свободное скачивание без начисления Download

800 слов / 800 Words / Сезон: 1 / Серии: 1 из 8 (Пино Амента, Майк Смит) [2015, Комедия, мелодрама, HDTVRip] VO (DexterTV)

Ответить на тему
 
Автор
Сообщение

Omen ®

Стаж: 5 лет 10 месяцев

Сообщений: 184329

Торрент-статистика

Пост 23-Май-2016 15:00

[Цитировать]

--800 слов / 800 Words
1 сезон 1 серия
-- Год выпуска: 2015
Страна: Австралия, Новая Зеландия
Жанр: Комедия, мелодрама
Продолжительность: ~ 43 мин
Перевод: Любительский (одноголосый закадровый) DexterTV
Режиссёр: Пино Амента, Майк Смит
В ролях: Эрик Томсон, Мелина Видлер, Бенсон Джек Энтони, Рик Дональд, Мишель Лэнстоун, Анна Джуллиенн, Эмма Леонард, Циан Элиз Уайт, Брайди Картер, Питер Эллиотт
Описание: Недавно овдовевший отец бросает работу популярного обозревателя в известной газете Сиднея. Через интернет он покупает дом в отдаленном городке Новой Зеландии. Теперь он должен переехать туда с двумя детьми-подростками, которые пугаются неопределенного будущего. Но его мечтам о новом начале не дают идти по плану любознательные местные жители.
Сэмпл: http://multi-up.com/1102661
Качество: HDTVRip
Формат: AVI
Видео: XviD, 720x400 [16:9], 25.000 fps, 1385 kbps, 0.192 bit/pixel
Аудио: MP3, 48 kHz, 2 ch, 192 Kbps
Субтитры: отсутствуют

MediaInfo

Format : AVI
Format/Info : Audio Video Interleave
File size : 503 MiB
Duration : 44mn 19s
Overall bit rate : 1 586 Kbps
Writing application : VirtualDubMod 1.5.10.3 | www.virtualdub-fr.org || (build 2550/release)
Writing library : VirtualDub build 35576/release
Video
ID : 0
Format : MPEG-4 Visual
Format profile : Advanced Simple@L5
Format settings, BVOP : 1
Format settings, QPel : No
Format settings, GMC : No warppoints
Format settings, Matrix : Default (MPEG)
Codec ID : XVID
Codec ID/Hint : XviD
Duration : 44mn 19s
Bit rate : 1 385 Kbps
Width : 720 pixels
Height : 400 pixels
Display aspect ratio : 16:9
Frame rate : 25.000 fps
Color space : YUV
Chroma subsampling : 4:2:0
Bit depth : 8 bits
Scan type : Progressive
Compression mode : Lossy
Bits/(Pixel*Frame) : 0.192
Stream size : 439 MiB (87%)
Writing library : XviD 1.2.1 (UTC 2008-12-04)
Audio
ID : 1
Format : MPEG Audio
Format version : Version 1
Format profile : Layer 3
Mode : Joint stereo
Codec ID : 55
Codec ID/Hint : MP3
Duration : 44mn 19s
Bit rate mode : Constant
Bit rate : 192 Kbps
Channel(s) : 2 channels
Sampling rate : 48.0 KHz
Compression mode : Lossy
Stream size : 60.9 MiB (12%)
Alignment : Split accross interleaves
Interleave, duration : 40 ms (1.00 video frame)
Interleave, preload duratio : 500 ms

Скриншоты

Вне форума [Профиль] [ЛС]
Показать сообщения:    
Ответить на тему

Текущее время: Сегодня 07:42

Часовой пояс: GMT + 3



Вы не можете начинать темы
Вы не можете отвечать на сообщения
Вы не можете редактировать свои сообщения
Вы не можете удалять свои сообщения
Вы не можете голосовать в опросах
Вы не можете прикреплять файлы к сообщениям
Вы не можете скачивать файлы