Сегодня идет свободное скачивание без начисления Download

Сотня / The 100 / Сезон: 3 / Серии: 1-14 из 16 (Дин Уайт, Майрзи Алмас, Мэтт Барбер) [2016, Фантастика, драма, триллер, HDTVRip 1080p] MVO (DD 5.1 Alexfilm) + MVO (DD 5.1 LostFilm) + Original

Ответить на тему
 
Автор
Сообщение

Omen ®

Стаж: 5 лет 6 месяцев

Сообщений: 186946

Торрент-статистика

Пост 22-Май-2016 00:00

[Цитировать]

-Сотня / The 100-- Год выпуска: 2016
Страна: США, Bonanza Productions, Alloy Entertainment, Warner Bros. Television
Жанр: боевик, драма, криминал
Продолжительность: ~ 00:42:00-Перевод 1: Профессиональный (многоголосый закадровый) Alexfilm
Перевод 2: Профессиональный (многоголосый закадровый) LostFilm-Режиссёр: Дин Уайт, Майрзи Алмас, Мэтт Барбер-В ролях: Элиза Тейлор, Пейдж Турко, Боб Морли, Мари Авгеропулос, Девон Бостик, Кристофер Ларкин, Линдси Морган, Рики Уиттл, Ричард Хэрмон, Исайя Вашингтон, Генри Йен Кьюсик, Эрика Серра и другие-Описание:
98 лет спустя после ядерного апокалипсиса по орбите Земли кружится гигантский конгломерат, довольно таки качественно сосвиняченный некогда из двух с лишним дюжин космических станций. МКС там, к слову, где-то сбоку присобачена, даже особо не смотрится. Именуется сие чудо-юдо «Ковчегом». А населяют его к моменту событий уже этак тыщщи две потомков — ибо сами свидетели пирушки полярной лисички уже успели элементарно перемереть, как правило от старости — экипажей станций и сопутствующих космических туристов, в ожидании, когда ещё через сотню лет уже их потомки смогут спуститься на историческую родину. И в надеждах, что уже и так более чем столетнее оборудование попустит подобному безрассудству. Однако, системы жизнеобеспечения подобного оптимизма не разделяют — и медленно, но верно приходят в негодность. Одно хорошо: что пока ещё не то что бы совсем уж в глухую, их всё ещё вполне можно починить — но для этого требуется слегонца подсократить количество живых потребителей кислорода на станциях. Для чего весь контингент местной бутырки, состоящий сплошь из подростков-асоциалов, в количестве ста штук, запихивают в спускаемый аппарат и отправляют вниз, к радскорпионам и смертокогтам. Сажают шайтан-летучку где-то в окрестностях старого правительственного спецсклада. А далее следуют собственно, сами постапокалиптические приключения: мутанты, убежища, радиация, дикие и не очень земляне, а также переменной сочности Гуро. © (Луркоморье/Lurkmore)-Качество: HDTVRip 1080p
Контейнер: MKV
Видео кодек: H.264
Аудио кодек: AC3
Видео: 1920x1080 at 23.976 fps, x264@L4.1, crf, ~13000 kbps avg
Аудио#1: Russian: 48 kHz, AC3, 3/2 (L,C,R,l,r) + LFE ch, ~384.00 kbps avg |Многоголосый закадровый, Alexfilm|
Аудио#2: Russian: 48 kHz, AC3, 3/2 (L,C,R,l,r) + LFE ch, ~384.00 kbps avg |Многоголосый закадровый, Lostfilm|
Аудио#3: English: 48 kHz, AC3, 3/2 (L,C,R,l,r) + LFE ch, ~384.00 kbps avg- by Plazik-Сэмпл / ImDB / Кинопоиск-

Дополнительно

Звуковые дорожки 1-2 получены наложением чистых и выделенных голосов на центр оригинала. Работа со звуком kmarats.
Звуковые дорожки подогнаны с WEB-DL под HDTV без перезжатия с использованием eac3to.
DIMENSION: "This was encoded from the CW national ~38mbps feed. So, yes there are logos, but it remains the best video source by far. Affiliate OTA, QAM, etc sources are a total mess."

Список серий


01. Ван'эда, Часть 1 (Wanheda: Part 1)
02. Ван'эда, Часть 2 (Wanheda: Part 2)
03. Всяк сюда входящий (Ye Who Enter Here)
04. Следи за престолом (Watch the Thrones)
05. Акелдама (Hakeldama)
06. Жестокая жатва (Bitter Harvest)
07. Тринадцать (Thirteen)
08. Условия и положения (Terms and Conditions)
09. Украденное пламя (Stealing Fire)
10. Падший (Fallen)
11. Никогда (Nevermore)
12. Демоны (Demons)
13. Присоединись или умри (Join or Die)
14. Багряный рассвет (Red Sky at Morning)
15. Некорректная задача: Часть 1 (Perverse Instantiation: Part One)
16. Некорректная задача: Часть 2 (Perverse Instantiation: Part Two)

MediaInfo

Код:
Общее
Уникальный идентификатор                 : 242694958958907778046068153798297701904 (0xB695595045393F5F8D687FD07AD8CE10)
Полное имя                               : The.100.S03.1080p.HDTVRip.2xRus.Eng.HDCLUB\The.100.S03E14.Red.Sky.at.Morning.1080p.HDTVRip.2xRus.Eng.HDCLUB.mkv
Формат                                   : Matroska
Версия формата                           : Version 4 / Version 2
Размер файла                             : 5,08 Гбайт
Продолжительность                        : 41 м.
Общий поток                              : 17,4 Мбит/сек
Название фильма                          : Сотня / The 100 (2015) S03E14 Багряный рассвет / Red Sky at Morning
Дата кодирования                         : UTC 2016-05-08 15:46:56
Программа кодирования                    : mkvmerge v9.1.0 ('Little Earthquakes') 64bit
Библиотека кодирования                   : libebml v1.3.3 + libmatroska v1.4.4
Attachements                             : cover.jpg
Видео
Идентификатор                            : 1
Формат                                   : AVC
Формат/Информация                        : Advanced Video Codec
Профиль формата                          : High@L4.1
Параметр CABAC формата                   : Да
Параметр ReFrames формата                : 4 кадра
Идентификатор кодека                     : V_MPEG4/ISO/AVC
Продолжительность                        : 41 м.
Битрейт                                  : 15,9 Мбит/сек
Ширина                                   : 1920 пикселей
Высота                                   : 1080 пикселей
Соотношение сторон                       : 16:9
Режим частоты кадров                     : Постоянный
Частота кадров                           : 23,976 (24000/1001) кадра/сек
Цветовое пространство                    : YUV
Субдискретизация насыщенности            : 4:2:0
Битовая глубина                          : 8 бит
Тип развёртки                            : Прогрессивная
Бит/(Пиксели*Кадры)                      : 0.319
Размер потока                            : 4,65 Гбайт (91%)
Заголовок                                : MPEG-4 AVC @ ~13000 Kbps - HDTVRip DIMENSION
Библиотека кодирования                   : x264 core 148 r2665 a01e339
Настройки программы                      : cabac=1 / ref=4 / deblock=1:-3:-3 / analyse=0x3:0x133 / me=umh / subme=11 / psy=1 / psy_rd=1.00:0.00 / mixed_ref=1 / me_range=32 / chroma_me=1 / trellis=2 / 8x8dct=1 / cqm=0 / deadzone=21,11 / fast_pskip=0 / chroma_qp_offset=-2 / threads=16 / lookahead_threads=1 / sliced_threads=0 / nr=0 / decimate=1 / interlaced=0 / bluray_compat=0 / constrained_intra=0 / bframes=5 / b_pyramid=2 / b_adapt=2 / b_bias=0 / direct=3 / weightb=1 / open_gop=0 / weightp=2 / keyint=250 / keyint_min=23 / scenecut=40 / intra_refresh=0 / rc_lookahead=60 / rc=crf / mbtree=1 / crf=17.0 / qcomp=0.60 / qpmin=0 / qpmax=69 / qpstep=4 / ip_ratio=1.40 / aq=1:1.00
Язык                                     : English
Default                                  : Да
Forced                                   : Нет
Цветовой диапазон                        : Limited
Коэффициенты матрицы                     : BT.709
Аудио #1
Идентификатор                            : 2
Формат                                   : AC-3
Формат/Информация                        : Audio Coding 3
Расширение режима                        : CM (complete main)
Параметр Endianness формата              : Big
Идентификатор кодека                     : A_AC3
Продолжительность                        : 41 м.
Вид битрейта                             : Постоянный
Битрейт                                  : 384 Кбит/сек
Каналы                                   : 6 каналов
Расположение каналов                     : Front: L C R, Side: L R, LFE
Частота                                  : 48,0 КГц
Частота кадров                           : 31,250 кадров/сек (1536 spf)
Метод сжатия                             : С потерями
Размер потока                            : 115 Мбайт (2%)
Заголовок                                : AC3 5.1 @ 384 Kbps - Многоголосый закадровый, Alexfilm
Язык                                     : Russian
Default                                  : Да
Forced                                   : Нет
Аудио #2
Идентификатор                            : 3
Формат                                   : AC-3
Формат/Информация                        : Audio Coding 3
Расширение режима                        : CM (complete main)
Параметр Endianness формата              : Big
Идентификатор кодека                     : A_AC3
Продолжительность                        : 41 м.
Вид битрейта                             : Постоянный
Битрейт                                  : 384 Кбит/сек
Каналы                                   : 6 каналов
Расположение каналов                     : Front: L C R, Side: L R, LFE
Частота                                  : 48,0 КГц
Частота кадров                           : 31,250 кадров/сек (1536 spf)
Метод сжатия                             : С потерями
Размер потока                            : 115 Мбайт (2%)
Заголовок                                : AC3 5.1 @ 384 Kbps - Многоголосый закадровый, LostFilm
Язык                                     : Russian
Default                                  : Нет
Forced                                   : Нет
Аудио #3
Идентификатор                            : 4
Формат                                   : AC-3
Формат/Информация                        : Audio Coding 3
Расширение режима                        : CM (complete main)
Параметр Endianness формата              : Big
Идентификатор кодека                     : A_AC3
Продолжительность                        : 41 м.
Вид битрейта                             : Постоянный
Битрейт                                  : 384 Кбит/сек
Каналы                                   : 6 каналов
Расположение каналов                     : Front: L C R, Side: L R, LFE
Частота                                  : 48,0 КГц
Частота кадров                           : 31,250 кадров/сек (1536 spf)
Метод сжатия                             : С потерями
Размер потока                            : 115 Мбайт (2%)
Заголовок                                : AC3 5.1 @ 384 Kbps
Язык                                     : English
Default                                  : Нет
Forced                                   : Нет
[/spoiler]

Скриншоты


Вне форума [Профиль] [ЛС]
Показать сообщения:    
Ответить на тему

Текущее время: Сегодня 03:04

Часовой пояс: GMT + 3



Вы не можете начинать темы
Вы не можете отвечать на сообщения
Вы не можете редактировать свои сообщения
Вы не можете удалять свои сообщения
Вы не можете голосовать в опросах
Вы не можете прикреплять файлы к сообщениям
Вы не можете скачивать файлы