Сегодня идет свободное скачивание без начисления Download

Сапфир и Сталь / Sapphire and Steel / Сезон: 1 / Серии: 1-6 из 34 (П. Дж. Хэммонд) [1979, фантастика, DVDRip] Original + Rus Subs (Nettlefish)

Ответить на тему
 
Автор
Сообщение

Omen ®

Стаж: 5 лет 9 месяцев

Сообщений: 184393

Торрент-статистика

Пост 21-Май-2016 15:00

[Цитировать]

Сапфир и Сталь / Sapphire and Steel
Год выпуска: 1979-1982
Страна: Великобритания
Жанр: фантастика
Средняя продолжительность серии: 26 минут
Перевод: субтитры [Nettlefish]
Режиссёр: П. Дж. Хэммонд
В ролях: Дэвид Маккалум и Джоанна Ламли
Описание: Конечно, у этой проблемы есть две стороны. И вторая заключается в том, что Время никак не хотят оставить в покое. Но если есть те, кто нарушает Его ход, то должны быть и те, кто этот ход восстанавливает. И уж будьте уверены: силы, контролирующие каждое измерение, не замедлят взять на себя исправление всех несоответствий.
Доп. информация: Сериал делится на 6 "Assignments" (заданий, служебных командировок) по 4-8 эпизодов в каждом. Деления на сезоны нет.
Сэмпл: http://sendfile.su/1235501
Качество: DVDRip
Формат: AVI
Видео: XviD, 640х480 (4:3), 23.976 fps, 1 464 kbps
Аудио: MP3, 48.0 kHz, 2ch, 128 kbps
Субтитры: русские, внешние

MediaInfo

Format : AVI
Format/Info : Audio Video Interleave
File size : 310 MiB
Duration : 26mn 56s
Overall bit rate mode : Variable
Overall bit rate : 1 609 Kbps
Writing application : VirtualDubMod 1.5.4.1 (build 2178/release)
Writing library : VirtualDubMod build 2178/release
Video
ID : 0
Format : MPEG-4 Visual
Format profile : Simple@L0
Format settings, BVOP : No
Format settings, QPel : No
Format settings, GMC : No warppoints
Format settings, Matrix : Default (H.263)
Codec ID : XVID
Codec ID/Hint : XviD
Duration : 26mn 56s
Bit rate : 1 464 Kbps
Width : 640 pixels
Height : 480 pixels
Display aspect ratio : 4:3
Frame rate : 23.976 (23976/1000) fps
Color space : YUV
Chroma subsampling : 4:2:0
Bit depth : 8 bits
Scan type : Progressive
Compression mode : Lossy
Bits/(Pixel*Frame) : 0.199
Stream size : 282 MiB (91%)
Writing library : XviD 1.0.3 (UTC 2004-12-20)
Audio
ID : 1
Format : MPEG Audio
Format version : Version 1
Format profile : Layer 3
Mode : Joint stereo
Mode extension : MS Stereo
Codec ID : 55
Codec ID/Hint : MP3
Duration : 26mn 56s
Bit rate mode : Variable
Bit rate : 128 Kbps
Channel(s) : 2 channels
Sampling rate : 48.0 KHz
Compression mode : Lossy
Delay relative to video : 48ms
Stream size : 25.5 MiB (8%)
Alignment : Split accross interleaves
Interleave, duration : 24 ms (0.58 video frame)
Interleave, preload duratio : 576 ms
Writing library : LAME3.96r
Encoding settings : -m j -V 4 -q 2 -lowpass 17.5 --abr 128
Language : English

Скриншоты

Внимание! Раздача ведётся путём добавления новых серий!

Раздача ведётся путём добавления новых серий; при каждом добавлении создаётся новый торрент. Чтобы начать докачку новой серии, пользователям необходимо сделать следующее:
(1) остановить скачивание,
(2) удалить старый торрент-файл у себя из клиента (старые серии удалять не надо),
(3) скачать новый торрент-файл из раздачи и запустить его у себя в клиенте вместо старого, при этом указать клиенту путь в старую папку, куда и должно происходить скачивание новых серий.
Ваш клиент при этом должен произвести хеширование (проверку) старой папки (если не производит сам - помогите ему сделать это), и будет докачивать только те серии, которых у Вас ещё нет. Старые серии при этом не удаляются, а продолжают раздаваться!
Eсли Вы уже посмотрели и удалили старые серии, то предотвратить повторную закачку старых серий можно, сняв галочки в соответсвующих местах при запуске нового торрента. По возможности, желательно не удалять старые серии как можно дольше чтобы релизёр не столько продолжал раздавать старые серии, сколько сконцентрироваться на новых.
Вне форума [Профиль] [ЛС]
Показать сообщения:    
Ответить на тему

Текущее время: Сегодня 15:07

Часовой пояс: GMT + 3



Вы не можете начинать темы
Вы не можете отвечать на сообщения
Вы не можете редактировать свои сообщения
Вы не можете удалять свои сообщения
Вы не можете голосовать в опросах
Вы не можете прикреплять файлы к сообщениям
Вы не можете скачивать файлы