Сегодня идет свободное скачивание без начисления Download

Полиция Гавайев / Hawaii Five-0 / Сезон: 6 / Серии: 1-25 из 25 (Стив Бойум, Брайан Спайсер, Брэд Тернер, Кристин Мур) [2015-2016, боевик, драма, криминал, HDTVRip 720p] MVO (DD 5.1 LostFilm) + Original + Subs (Eng)

Ответить на тему
 
Автор
Сообщение

Omen ®

Стаж: 5 лет 7 месяцев

Сообщений: 185412

Торрент-статистика

Пост 20-Май-2016 00:00

[Цитировать]

-Полиция Гавайев / Hawaii Five-0-- Год выпуска: 2015-2016
Страна: США
Жанр: боевик, драма, криминал
Продолжительность: ~ 00:42:00-Перевод: Профессиональный (многоголосый закадровый) LostFilm
Субтитры: Английские-Режиссёр: Стив Бойум, Брайан Спайсер, Брэд Тернер, Кристин Мур-В ролях: Алекс О`Лафлин, Скотт Каан, Дэниэл Дэ Ким, Грэйс Пак, Маси Ока, Тайлор Уайли, Тейлор Груббс, Лорен Джерман, Терри О’Куинн, Клер Вандер Бум, Брайан Янг, Дэннис Чун, Марк Дакаскос, Лариса Олейник, Уилл Юн Ли, Рейко Эйлсворт, Мишелль Борт, Уильям Сэдлер, Пол Эдни, Джин Смарт, Иэн Энтони Дэйл, Ричард Т. Джонс, Тэрин-Описание:
Детектив Стив МакГарретт, бывший морской офицер с массой наград, а теперь полицейский, возвращается в Оаху расследовать убийство отца. Он остается на острове, после того, как губернатор штата Гавайи убедил его возглавить новую команду. Команда будет действовать по его правилам, при поддержке губернатора, без бюрократических проволочек, и с полным иммунитетом, все это - чтобы поймать самую крупную «дичь» в городе. К МакГаррету присоединяется детектив Дэнни «Данно» Уильямс, недавно переведенный из Нью-Джерси полицейский, который предпочел бы небоскребы пляжам, но готов бороться с преступностью, чтобы его 8-летняя дочь чувствовала себя на островах в безопасности; и Чин Хо Келли, бывший детектив полиции Гонолулу, которого ошибочно обвинили в коррупции, и который когда-то был протеже отца МакГаррета. Двоюродная сестра Чина, Коно, прекрасная и бесстрашная уроженка островов, недавно выпустилась из академии, и рвется доказать, что она достойна места в элите департамента. МакГаррет клянется завершить дело отца, а члены нового спецотряда Five-O, может, и грызутся друг с другом, но настроены уничтожить преступность в пятидесятом штате.-Качество: HDTVRip 720p
Контейнер: MKV
Видео кодек: H.264
Аудио кодек: AC3
Видео: 1280x720 at 23.976 fps, MPEG-4 AVC, ~3700 kbps avg
Аудио Rus: 48 kHz, 6 ch, ~384 kbps |LostFilm|
Аудио Eng: 48 kHz, 6 ch, ~384 kbps |Original|
Субтитры: softsub (SRT)-Озвучка: Студия "LostFilm"
Работа со звуком: vlaluk-[url=tracker.php?f=189,2366&nm=Hawaii+Five+0+201%2A]Все раздачи сериала[/url] / Сэмпл / ImDB / Кинопоиск-

Список серий

01: Mai ho'oni i ka wai lana mâlie / Не мутите спокойные воды
02: Ashes to Ashes / Прах к праху
03: The Chilling Storm is on the Mountains / Холодный шторм в горах
04: Best Laid Plans / Точный расчет
05: Full Goldenrod / Большая ложь
06: Na pilikua nui / Монстры
07: Na Kama Hele / Туристы-экстремалы
08: Piko Pau 'iole / Ловкий мошенник
09: Hana Keaka / Шарада
10: Ka Makau Kaa Kaua / Тонкая наука
11: Kuleana / Чувство ответственности
12: Ua Ola Loko I Ke Aloha / Жизнь дарует любовь
13: Umia Ka Hanu / Задержи дыхание
14: Hoa 'inea / Несчастье любит компанию
15: Ke Koa Lokomaika'i / Хороший солдат
16: Ka Pohaku Kihi Pa'a / Крепкий фундамент
17: Waiwai / Активы
18: Kanaka Hahai / Охотник
19: Malama Ka Po'e / Забота о своих
20: Ka Haunaele / Буйство
21: Ka Pono Ku'oko'a / Цена свободы
22: I'ike Ke Ao / Пусть весь мир узнает
23: Pilina Koko / Кровные узы
24: Pa'a ka 'ipuka i ka 'upena nananana / Паутина преградила путь
25: O Ke Ali'i Wale No Ka' U Make Make / Я принадлежу только вождю

MediaInfo

Код:
Общее
Уникальный идентификатор                 : 218205213529602496925039211196456393141 (0xA428CBA44D70CB9FBEEC5814885459B5)
Полное имя                               : \Hawaii.Five-0.S06.720p.HDTVRip.Rus.Eng.filin1984\Hawaii.Five-0.S06E23.720p.HDTVRip.Rus.Eng.filin1984.mkv
Формат                                   : Matroska
Версия формата                           : Version 4 / Version 2
Размер файла                             : 1,50 Гбайт
Продолжительность                        : 43 м.
Общий поток                              : 4888 Кбит/сек
Дата кодирования                         : UTC 2016-05-19 18:25:47
Программа кодирования                    : mkvmerge v6.9.1 ('Blue Panther') 32bit built on Apr 18 2014 18:15:44
Библиотека кодирования                   : libebml v1.3.0 + libmatroska v1.4.1
Видео
Идентификатор                            : 1
Формат                                   : AVC
Формат/Информация                        : Advanced Video Codec
Профиль формата                          : High@L4.1
Параметр CABAC формата                   : Да
Параметр ReFrames формата                : 9 кадров
Идентификатор кодека                     : V_MPEG4/ISO/AVC
Продолжительность                        : 43 м.
Битрейт                                  : 4022 Кбит/сек
Ширина                                   : 1280 пикселей
Высота                                   : 720 пикселей
Соотношение сторон                       : 16:9
Режим частоты кадров                     : Постоянный
Частота кадров                           : 23,976 (24000/1001) кадра/сек
Цветовое пространство                    : YUV
Субдискретизация насыщенности            : 4:2:0
Битовая глубина                          : 8 бит
Тип развёртки                            : Прогрессивная
Бит/(Пиксели*Кадры)                      : 0.182
Размер потока                            : 1,23 Гбайт (82%)
Заголовок                                : Episode 23: Pilina Koko / Кровные узы
Библиотека кодирования                   : x264 core 148 r2665 a01e339
Настройки программы                      : cabac=1 / ref=9 / deblock=1:-2:-2 / analyse=0x3:0x133 / me=umh / subme=10 / psy=1 / psy_rd=1.00:0.00 / mixed_ref=1 / me_range=32 / chroma_me=1 / trellis=2 / 8x8dct=1 / cqm=0 / deadzone=21,11 / fast_pskip=0 / chroma_qp_offset=-2 / threads=16 / lookahead_threads=1 / sliced_threads=0 / nr=0 / decimate=1 / interlaced=0 / bluray_compat=0 / constrained_intra=0 / bframes=5 / b_pyramid=2 / b_adapt=2 / b_bias=0 / direct=3 / weightb=1 / open_gop=0 / weightp=2 / keyint=250 / keyint_min=23 / scenecut=40 / intra_refresh=0 / rc_lookahead=60 / rc=crf / mbtree=1 / crf=18.0 / qcomp=0.60 / qpmin=0 / qpmax=69 / qpstep=4 / ip_ratio=1.40 / aq=1:1.00
Язык                                     : English
Default                                  : Да
Forced                                   : Нет
Цветовой диапазон                        : Limited
Коэффициенты матрицы                     : BT.709
Аудио #1
Идентификатор                            : 2
Формат                                   : AC-3
Формат/Информация                        : Audio Coding 3
Расширение режима                        : CM (complete main)
Параметр Endianness формата              : Big
Идентификатор кодека                     : A_AC3
Продолжительность                        : 43 м.
Вид битрейта                             : Постоянный
Битрейт                                  : 384 Кбит/сек
Каналы                                   : 6 каналов
Расположение каналов                     : Front: L C R, Side: L R, LFE
Частота                                  : 48,0 КГц
Частота кадров                           : 31,250 кадров/сек (1536 spf)
Метод сжатия                             : С потерями
Размер потока                            : 120 Мбайт (8%)
Заголовок                                : DD 5.1 @ 384 kbps @ LostFilm
Язык                                     : Russian
Default                                  : Да
Forced                                   : Нет
Аудио #2
Идентификатор                            : 3
Формат                                   : AC-3
Формат/Информация                        : Audio Coding 3
Расширение режима                        : CM (complete main)
Параметр Endianness формата              : Big
Идентификатор кодека                     : A_AC3
Продолжительность                        : 43 м.
Вид битрейта                             : Постоянный
Битрейт                                  : 384 Кбит/сек
Каналы                                   : 6 каналов
Расположение каналов                     : Front: L C R, Side: L R, LFE
Частота                                  : 48,0 КГц
Частота кадров                           : 31,250 кадров/сек (1536 spf)
Метод сжатия                             : С потерями
Размер потока                            : 120 Мбайт (8%)
Заголовок                                : DD 5.1 @ 384 kbps
Язык                                     : English
Default                                  : Нет
Forced                                   : Нет
Текст
Идентификатор                            : 4
Формат                                   : UTF-8
Идентификатор кодека                     : S_TEXT/UTF8
Идентификатор кодека/Информация          : UTF-8 Plain Text
Заголовок                                : English @ SRT
Язык                                     : English
Default                                  : Нет
Forced                                   : Нет
[/spoiler]
Вне форума [Профиль] [ЛС]
Показать сообщения:    
Ответить на тему

Текущее время: Сегодня 13:30

Часовой пояс: GMT + 3



Вы не можете начинать темы
Вы не можете отвечать на сообщения
Вы не можете редактировать свои сообщения
Вы не можете удалять свои сообщения
Вы не можете голосовать в опросах
Вы не можете прикреплять файлы к сообщениям
Вы не можете скачивать файлы