Сегодня идет свободное скачивание без начисления Download

24 часа / 24 [Сезон 8](Джон Кассар, Роберт Кохрэн, Джоэль Сарноу)[2010 г., боевик, триллер, драма, WEB-DL 720p, sub]

Ответить на тему
 
Автор
Сообщение

Omen ®

Стаж: 6 лет 1 месяц

Сообщений: 184308

Торрент-статистика

Пост 17-Май-2016 21:33

[Цитировать]

24 часа / 24 | Сезон 8 | Серии 1-24 | WEB-DL 720p | Рус. Субтитры Год выпуска: 2010
Страна: США
Жанр: боевик, триллер, драма
Продолжительность: 24 серии по 42 минуты
Перевод: Субтитры
Русские субтитры: есть
Режиссер: Джон Кассар, Роберт Кохрэн, Джоэль Сарноу
В ролях: Кифер Сазерленд, Мэри Линн Райскаб, Элиша Катберт, Кэти Сакхофф, Крис Диамантополос, Джон Бойд, Фредди Принц, Черри Джонс
Описание: В сутках 24 часа, но для Джека Бауэра - бывшего шефа элитного антитеррористического подразделения ЦРУ – этого времени явно недостаточно. Ровно за одни сутки он должен успеть спасти город и страну от очередной террористической угрозы. Каждый сезон, состоящий из 24 серий, повествует об одних сутках из жизни Джека, за один день он должен совершить невозможное...
Место действия 8 сезона: Нью-Йорк. Джек Бауэр невольно возвращается обратно в действие так же, как Президент Эллисон Тэйлор. Последняя договаривается о подписании договора о международной безопасности с решительным, ближневосточным лидером Омаром Хассаном, приехавшим в США с миротворческой целью.
Новый день, новое, модернизированное КТП под руководством Брайена Хастингса, который контролирует причудливую Хлою О'Брайен, опытного аналитика Дану Уолш и системного аналитика Арло Гласса.
8.9/10|
Огромное спасибо JigSaW_3 за подгонку субтитров и снятие DRM с Web-Dl'ек
Перевод субтитров - сайт Notabenoid.com
26.05.10г. Торрент обновлен, просьба перезакачать. Добавлена 23-24 серия. Сериал закончен.
Английские субтитры под Web-Dl есть здесь.
[url=tracker.php?f=271&nm=24]Все раздачи сериала[/url]
Качество: Web-Dl
Формат: MKV
Видео кодек: H.264
Аудио кодек: AC3
Видео: 1280x720, 3 945 kbps, 23.976 fps
Аудио: Dolby Digital 5.1, 384 Kbps, 48.0 KHz |Оригинальный английский звук|
Субтитры: Русские |Notabenoid|

Отчет MediaInfo

General
Complete name : I:\Movies\24_season 8\24.S08E01.720p.WEB-DL.H264.DD51.rus.sub.mkv
Format : Matroska
File size : 1.32 GiB
Duration : 42mn 40s
Overall bit rate : 4 416 Kbps
Movie name : 24 S08E01 - Day 8: 4:00 PM-5:00 PM
Encoded date : UTC 2010-02-16 13:54:37
Writing application : mkvmerge v3.0.0 ('Hang up your Hang-Ups') built on Dec 12 2009 15:20:35
Writing library : libebml v0.7.9 + libmatroska v0.8.1
Video
ID : 1
Format : AVC
Format/Info : Advanced Video Codec
Format profile : High@L3.1
Format settings, CABAC : No
Format settings, ReFrames : 2 frames
Muxing mode : Container profile=Unknown@3.1
Codec ID : V_MPEG4/ISO/AVC
Duration : 42mn 37s
Bit rate : 3 945 Kbps
Width : 1 280 pixels
Height : 720 pixels
Display aspect ratio : 16:9
Frame rate : 23.976 fps
Resolution : 8 bits
Colorimetry : 4:2:0
Scan type : Progressive
Bits/(Pixel*Frame) : 0.179
Stream size : 1.17 GiB (89%)
Language : English
Color primaries : BT.709-5, BT.1361, IEC 61966-2-4, SMPTE RP177
Transfer characteristics : BT.709-5, BT.1361
Matrix coefficients : BT.709-5, BT.1361, IEC 61966-2-4 709, SMPTE RP177
Audio
ID : 2
Format : AC-3
Format/Info : Audio Coding 3
Codec ID : A_AC3
Duration : 42mn 40s
Bit rate mode : Constant
Bit rate : 384 Kbps
Channel(s) : 6 channels
Channel positions : Front: L C R, Surround: L R, LFE
Sampling rate : 48.0 KHz
Stream size : 117 MiB (9%)
Title : Английский звук, 5.1
Language : English
Text
ID : 3
Format : UTF-8
Codec ID : S_TEXT/UTF8
Codec ID/Info : UTF-8 Plain Text
Title : Русские субтитры
Language : Russian
Вне форума [Профиль] [ЛС]
Показать сообщения:    
Ответить на тему

Текущее время: Сегодня 18:40

Часовой пояс: GMT + 3



Вы не можете начинать темы
Вы не можете отвечать на сообщения
Вы не можете редактировать свои сообщения
Вы не можете удалять свои сообщения
Вы не можете голосовать в опросах
Вы не можете прикреплять файлы к сообщениям
Вы не можете скачивать файлы