Сегодня идет свободное скачивание без начисления Download

Видео о Бергмане / Вторжение к Бергману / На территории Бергмана / Bergmans video / Сезон: 1 / Серии: 1-6 из 6 (Яне Магнуссон, Хюнек Паллас / Jane Magnusson, Hynek Pallas) [2012, документальный, WEBRip 720p] AVO (С.Визгунов) + Original (Sve)

Ответить на тему
 
Автор
Сообщение

Omen ®

Стаж: 5 лет 11 месяцев

Сообщений: 184329

Торрент-статистика

Пост 15-Май-2016 18:03

[Цитировать]

Видео о Бергмане / Вторжение к Бергману / На территории Бергмана / Bergmans video
Год выпуска: 2012
Страна: Швеция
Жанр: документальный
Продолжительность: 6 х ~45 мин.
Перевод: Авторский (одноголосый закадровый) – Сергей Визгунов
Cубтитры: шведский хардсаб на английскую речь
Оригинальная аудиодорожка: шведский
Режиссёр: Яне Магнуссон, Хюнек Паллас / Jane Magnusson, Hynek Pallas
В ролях: Томас Альфредсон, Вуди Аллен, Френсис Форд Коппола, Уэс Крэйвен, Роберт Де Ниро, Клер Дени, Михаэль Ханеке, Ларс фон Триер, Изабелла Росселлини, Мартин Скорсезе, Ридли Скотт, Алехандро Гонсалес Иньярриту, Пернилла Аугуст, Такеши Китано, Томас Винтерберг, Уэс Андерсон, Харриет Андерссон, Холли Хантер, Лора Дерн, Даниэль Эспиноза, Джон Лэндис, Энг Ли, Мона Мальм, Александр Пэйн, Чжан Имоу
Описание: О жизни Ингмара Бергмана и его ключевых фильмах рассказывают выдающиеся режиссеры и актеры современности. Интервью с Михаэлем Ханеке, Мартином Скорсезе, Ларсом фон Триером, Изабеллой Росселлини, Робертом Де Ниро, Вуди Алленом и другими, снятые на острове Форё – последнем прибежище Бергмана, переплетаются с редкими кадрами со съемочных площадок шедевров шведского киномастера...
Фильм произведен шведским телевидением (Sveriges Television (SVT).
Доп. информация: IMDb: http://www.imdb.com/title/tt3197112/
User Rating: 6.9/10 (31 users)
WEBRip скачан с KG, спасибо hirvi14.
Перевод Сергея Визгунова.
Здесь раздается полная версия этого фильма продолжительностью 262 минуты. Каждая из 45-минутных серий посвящена теме, присущей творчеству Бергмана: 1 – Комедия, 2 – Смерть, 3 – Приключение, 4 – Молчание, 5 – Страх, 6 – Отчуждение.
Сэмпл
Качество: WEBRip 720p
Формат: AVI
Видео: PAL 16:9 (1280x720), XVID, 25.00 fps, 2201 Kbps, 0.096 bit/pixel
Аудио 1: Russian (MP3, 2 ch, 48.0 KHz, 192 Kbps);
Аудио 2: Svenska (MP3, 2 ch, 48.0 KHz, 192 Kbps)

Список серий

1 серия – Комедия / Humour;
2 серия – Смерть / Death;
3 серия – Приключение / Adventure;
4 серия – Молчание / Silence;
5 серия – Страх / Fear;
6 серия – Отчуждение / Alienation

MediaInfo

Общее
Полное имя : C:\Users\user\Downloads\Bergmans video\Bergmans video ep1 - Humour.avi
Формат : AVI
Формат/Информация : Audio Video Interleave
Размер файла : 817 Мбайт
Продолжительность : 43 м.
Общий поток : 2603 Кбит/сек
Программа кодирования : VirtualDubModRus 1.5.10.2 (build 2540/release)
Библиотека кодирования : VirtualDubMod build 2540/release
Видео
Идентификатор : 0
Формат : xvid
Идентификатор кодека : xvid
Продолжительность : 43 м.
Битрейт : 2201 Кбит/сек
Ширина : 1280 пикселей
Высота : 720 пикселей
Соотношение сторон : 16:9
Частота кадров : 25,000 кадров/сек
Бит/(Пиксели*Кадры) : 0.096
Размер потока : 691 Мбайт (85%)
Аудио #1
Идентификатор : 1
Формат : AC-3
Формат/Информация : Audio Coding 3
Расширение режима : CM (complete main)
Параметр Endianness формата : Big
Идентификатор кодека : 2000
Продолжительность : 43 м.
Вид битрейта : Постоянный
Битрейт : 192 Кбит/сек
Каналы : 2 канала
Расположение каналов : Front: L R
Частота : 48,0 КГц
Битовая глубина : 16 бит
Метод сжатия : С потерями
Размер потока : 60,3 Мбайт (7%)
Выравнивание : Разделение по промежуткам
Продолжительность промежутка : 40 мс. (1,00 видеокадр)
Время предзагрузки промежутка : 500 мс.
Аудио #2
Идентификатор : 2
Формат : MPEG Audio
Версия формата : Version 1
Профиль формата : Layer 3
Режим : Joint stereo
Расширение режима : MS Stereo
Идентификатор кодека : 55
Идентификатор кодека/Подсказка : MP3
Продолжительность : 43 м.
Вид битрейта : Постоянный
Битрейт : 192 Кбит/сек
Каналы : 2 канала
Частота : 48,0 КГц
Метод сжатия : С потерями
Размер потока : 60,3 Мбайт (7%)
Выравнивание : Соединение по промежуткам
Продолжительность промежутка : 24 мс. (0,60 видеокадр)
Время предзагрузки промежутка : 504 мс.
Библиотека кодирования : LAME3.98.4

Скриншот с наименованием

Вне форума [Профиль] [ЛС]
Похожие темы
Форум Тема Автор Торрент Отв. Посл. сообщение
./templates/default/images/folder_dl.gif Обучающее видео Джефф Уолкер Тренинг для менеджеров по лончам / Jeff Walker Product Launch Manager Training [2012, инфобизнес, VCD, ENG] (Видеоурок) Omen
1 | 0

0 | 2144

25

2012-12-15 17:12
Omen Последнее
./templates/default/images/folder_dl.gif Обучающее видео Как сделать шкаф-купе своими руками в домашних условиях [2009, мебель, DVDRip, RUS] (Видеоурок) Omen
1 | 0

1 | 1188

34

2013-08-21 10:47
slider Последнее
./templates/default/images/folder_dl.gif Обучающее видео Джефф Уокер - Формула Запуска Продуктов 4.0 (2013) / Jeff Walker Product Launch Formula 4 [2013, бизнес, DVDRip, RUS/ENG] (Видеоурок) Omen
1 | 0

12 | 16785

540

2015-03-24 03:12
Wedzmin Последнее
./templates/default/images/folder_dl.gif Обучающее видео Секреты японского долголетия. Видеокурс [Юлия Резникова] (2014, Здоровье, PCRec) O.S.A.
0 | 1

0 | 622

13

2015-03-28 08:36
O.S.A. Последнее
./templates/default/images/folder_dl.gif Обучающее видео Денис Бурхаев | Видеосеминар «Научись понимать женщин! Общая модель женской психики» (2013) CamRip Omen
1 | 0

0 | 1567

59

2015-05-17 20:47
Omen Последнее
./templates/default/images/folder_dl.gif Обучающее видео А.Жуков, М.Гусельников | Студийная фотосъемка. Практический видеокурс (2015) CamRip [H.264] Omen
1 | 0

0 | 576

21

2015-09-26 22:34
Omen Последнее
./templates/default/images/folder_dl.gif Обучающее видео ITVDN | Видео курс Python Starter (2016) PCRec [H.264] moralis
1 | 0

0 | 686

28

2016-02-09 17:53
moralis Последнее
./templates/default/images/folder_dl.gif Архив ВидеоМОНТАЖ v4.15 RePack by KaktusTV [2016,Rus] (ВЕРСИЯ ПРЕМИУМ) Omen
1 | 0

0 | 622

10

2016-03-06 21:00
Omen Последнее
./templates/default/images/folder_dl.gif Обучающее видео [Ирина Калмыкова] Ирина Калмыкова. Видео курсы. [RUS] Omen
1 | 0

1 | 1680

7

2017-10-05 05:07
cyulia1402 Последнее
Показать сообщения:    
Ответить на тему

Текущее время: Сегодня 11:10

Часовой пояс: GMT + 3



Вы не можете начинать темы
Вы не можете отвечать на сообщения
Вы не можете редактировать свои сообщения
Вы не можете удалять свои сообщения
Вы не можете голосовать в опросах
Вы не можете прикреплять файлы к сообщениям
Вы не можете скачивать файлы